<?xml version="1.0" standalone="no"?>
<!DOCTYPE svg PUBLIC "-//W3C//DTD SVG 1.1//EN" "http://www.w3.org/Graphics/SVG/1.1/DTD/svg11.dtd" >
<svg xmlns="http://www.w3.org/2000/svg">
<metadata>
This is a custom SVG webfont generated by Font Squirrel.
Copyright   : Typeface  FontSite Inc 19962008 All Rights Reserved wwwfontsitecom
Designer    : FontSitecom
Foundry URL : httpwwwfontsitecom
</metadata>
<defs>
<font id="webfontjp82WRel" horiz-adv-x="1097" >
<font-face units-per-em="2048" ascent="1552" descent="-496" />
<missing-glyph horiz-adv-x="512" />
<glyph unicode=" "  horiz-adv-x="512" />
<glyph unicode="&#x09;" horiz-adv-x="512" />
<glyph unicode="&#xa0;" horiz-adv-x="512" />
<glyph unicode="!" horiz-adv-x="741" d="M266 1366h307l-43 -973h-219zM287 0v252h270v-252h-270z" />
<glyph unicode="&#x22;" horiz-adv-x="833" d="M86 1475h289l-49 -549h-193zM461 1475h287l-48 -549h-192z" />
<glyph unicode="#" d="M10 377l33 184h184l47 273h-184l33 184h184l62 348h211l-62 -348h201l61 348h211l-61 -348h184l-33 -184h-184l-47 -273h184l-33 -184h-184l-65 -377h-211l65 377h-200l-68 -377h-209l66 377h-185zM438 561h201l49 273h-203z" />
<glyph unicode="$" d="M78 991q0 164 111.5 263.5t312.5 115.5v176h106v-170q182 0 324 -45l-23 -229q-131 59 -301 63v-344q201 -68 273 -123q143 -109 143 -307q0 -203 -166 -317q-98 -66 -260 -84v-172h-109v166q-143 2 -215.5 12t-173.5 47l27 248q180 -88 328 -88q16 0 34 2v379 q-186 66 -253 110q-158 102 -158 297zM342 1010q0 -55 37 -91t123 -65v311q-160 -34 -160 -155zM598 209q160 39 160 168q0 63 -35 102t-125 74v-344z" />
<glyph unicode="%" horiz-adv-x="1482" d="M90 1018q0 358 258 358t258 -364q0 -164 -66.5 -252t-191.5 -88q-258 0 -258 346zM248 1018q0 -233 100.5 -233.5t100.5 229.5q0 250 -103 250q-98 0 -98 -246zM291 -63l776 1493h133l-774 -1493h-135zM883 336q0 358 256 358q258 0 258 -362q0 -166 -65.5 -254 t-190.5 -88q-127 0 -192.5 89t-65.5 257zM1040 336q0 -233 101 -234q98 0 98 230q0 250 -100 250q-99 0 -99 -246z" />
<glyph unicode="&#x26;" horiz-adv-x="1425" d="M121 389q0 260 285 365q-182 164 -183 321q0 145 116 231.5t308 86.5q174 0 279.5 -86t105.5 -226q0 -150 -121 -258q-53 -45 -149 -100l260 -281q78 111 84 299h235q-8 -274 -172 -465l242 -276h-330l-96 113q-98 -76 -184 -108t-197 -32q-213 0 -348 117t-135 299z M391 387q0 -90 68.5 -153.5t165.5 -63.5q115 0 233 94l-309 340q-158 -94 -158 -217zM479 1067q0 -43 26.5 -84t104.5 -117q12 8 23.5 13.5t17.5 9.5q141 84 142 184q0 57 -44 93t-112 36t-113 -39t-45 -96z" />
<glyph unicode="'" horiz-adv-x="460" d="M86 1475h289l-49 -549h-193z" />
<glyph unicode="(" horiz-adv-x="727" d="M84 528q0 246 68.5 455t240.5 492h248q-289 -500 -289 -943q0 -293 119 -598q51 -133 170 -350h-248q-170 274 -239.5 487t-69.5 457z" />
<glyph unicode=")" horiz-adv-x="729" d="M86 -416q125 236 170 350q119 305 119 598q0 442 -289 943h248q174 -287 241.5 -494t67.5 -455q0 -242 -69.5 -453.5t-239.5 -488.5h-248z" />
<glyph unicode="*" d="M150 1112l63 195l264 -119l-26 287h200l-26 -287l262 110l61 -186l-278 -65l188 -209l-166 -121l-143 246l-150 -246l-166 121l195 209z" />
<glyph unicode="+" d="M72 621v178h383v375h188v-375h385v-178h-385v-375h-188v375h-383z" />
<glyph unicode="," horiz-adv-x="546" d="M43 -221l123 491h278l-172 -491h-229z" />
<glyph unicode="-" horiz-adv-x="499" d="M0 403v220h500v-220h-500z" />
<glyph unicode="." horiz-adv-x="546" d="M133 0v268h279v-268h-279z" />
<glyph unicode="/" horiz-adv-x="892" d="M-72 -416l666 1891h217l-664 -1891h-219z" />
<glyph unicode="0" d="M72 668q0 328 96 499q57 104 156.5 163t222.5 59q125 0 224 -57.5t157 -164.5q96 -180 96 -505q0 -330 -117 -504q-59 -84 -153.5 -132.5t-206.5 -48.5q-111 0 -205 48.5t-154 132.5q-116 172 -116 510zM348 670q0 -487 201 -488q199 0 199 482q0 268 -49.5 394 t-151.5 126q-199 0 -199 -514z" />
<glyph unicode="1" d="M125 1049l405 317h240v-1366h-272v1065l-232 -197z" />
<glyph unicode="2" d="M80 0v229q221 201 352 346q125 137 178.5 228.5t53.5 167.5q0 88 -59.5 141t-155.5 53q-152 0 -320 -114l-23 241q215 96 418 97q188 0 299 -93q133 -111 133 -295q0 -106 -48 -207.5t-167 -250.5q-129 -162 -311 -328l565 4v-219h-915z" />
<glyph unicode="3" d="M86 27l16 237q152 -72 308 -71q133 0 208.5 54t75.5 148q0 201 -334 201q-55 0 -100 -2v223q70 -4 84 -4q166 0 252 47q92 51 92 150q0 76 -64.5 120t-177.5 44q-168 0 -307 -72l-16 225q199 61 364 62q229 0 356.5 -92.5t127.5 -260.5q0 -125 -68.5 -211t-185.5 -108 q90 -25 131 -53q61 -41 98 -122t37 -171q0 -182 -146.5 -288t-402.5 -106q-180 1 -348 50z" />
<glyph unicode="4" d="M31 276v234l508 856h350v-881h176v-209h-176v-276h-273v276h-585zM283 485h340l4 570q0 55 12 94q-25 -61 -35 -80z" />
<glyph unicode="5" d="M139 20l6 250q141 -70 291 -69q127 0 204 62.5t77 164.5q0 111 -84 176.5t-227 65.5q-113 0 -246 -41l12 737h793v-213h-533l-6 -279q61 6 106 7q215 0 346.5 -121t131.5 -320q0 -219 -150 -344q-139 -119 -409 -119q-106 0 -273 35z" />
<glyph unicode="6" d="M88 627q0 762 563 762q131 0 299 -48l-35 -221q-117 55 -225 56q-158 0 -238.5 -100.5t-95.5 -313.5q92 135 269 135q180 0 288.5 -127t108.5 -336q0 -211 -122 -334t-331 -123q-246 0 -363.5 159t-117.5 491zM373 446q0 -119 52 -191.5t138 -72.5q82 0 132 67.5 t50 178.5q0 119 -51 188.5t-139 69.5q-84 0 -133 -64.5t-49 -175.5z" />
<glyph unicode="7" d="M104 1155v211h889v-211l-479 -1155h-303l512 1155h-619z" />
<glyph unicode="8" d="M72 373q0 133 66.5 221t191.5 121q-109 31 -171.5 113.5t-62.5 197.5q0 166 122 264.5t329 98.5q201 0 320.5 -89.5t119.5 -240.5q0 -242 -231 -322q129 -35 199.5 -127t70.5 -227q0 -188 -135 -305q-121 -100 -344 -101q-217 0 -346 108t-129 288zM348 377 q0 -88 59.5 -144.5t149.5 -56.5q88 0 140.5 52.5t52.5 138.5q0 88 -50.5 140t-177.5 95q-25 -12 -39 -18q-135 -72 -135 -207zM362 1032q0 -86 70 -139q49 -35 141 -74l11.5 6t13.5 9q127 74 127 192q0 74 -49 121t-127 47q-80 0 -133.5 -46t-53.5 -116z" />
<glyph unicode="9" d="M72 930q0 219 121.5 339t343.5 120q238 0 354.5 -158t116.5 -479q0 -377 -127 -570q-63 -96 -176 -150.5t-252 -54.5q-172 0 -308 46l33 223q125 -55 223 -56q193 0 277 160q45 88 61 264q-78 -141 -268 -141q-180 0 -289.5 126t-109.5 331zM348 932q0 -111 53.5 -179.5 t139.5 -68.5q82 0 131 63.5t49 165.5q0 123 -51.5 197t-137.5 74q-82 0 -133 -69.5t-51 -182.5z" />
<glyph unicode=":" horiz-adv-x="546" d="M133 0v268h279v-268h-279zM133 745v269h279v-269h-279z" />
<glyph unicode=";" horiz-adv-x="546" d="M43 -221l123 491h280l-174 -491h-229zM170 745v269h279v-269h-279z" />
<glyph unicode="&#x3c;" horiz-adv-x="1024" d="M68 588v217l886 450v-256l-612 -303l612 -303v-256z" />
<glyph unicode="=" d="M72 463v178h956v-178h-956zM72 778v178h956v-178h-956z" />
<glyph unicode="&#x3e;" horiz-adv-x="1024" d="M68 135v258l612 303l-612 303v256l886 -450v-219z" />
<glyph unicode="?" horiz-adv-x="1040" d="M154 1323q203 66 395 66q180 0 293 -76q66 -47 104.5 -120t38.5 -155q0 -88 -37 -155.5t-155 -198.5q-88 -94 -112 -146.5t-28 -148.5h-235q2 141 29.5 210t123.5 173q125 139 125 236q0 76 -60.5 121t-162.5 45q-125 0 -297 -76zM399 0v254h271v-254h-271z" />
<glyph unicode="@" horiz-adv-x="1574" d="M100 670q0 305 210 516t515 211q281 0 466.5 -173t185.5 -436q0 -188 -102.5 -332.5t-235.5 -144.5q-59 0 -102.5 32t-57.5 83q-41 -61 -109.5 -96t-146.5 -35q-125 0 -208 92t-83 231q0 166 107.5 290t253.5 124q141 0 200 -102l17 80l178 -2l-76 -394q-14 -76 -14 -90 q0 -66 47 -65q63 0 118.5 104.5t55.5 224.5q0 197 -135 322t-348 125q-238 0 -400 -164t-162 -403q0 -231 154 -392q143 -145 408 -145q195 0 376 64l41 -162q-186 -63 -422 -64q-317 0 -514 185q-102 96 -159.5 233.5t-57.5 282.5zM637 625q0 -66 38 -107t97 -41 q70 0 123 65.5t53 149.5q0 66 -35.5 107t-95.5 41q-72 0 -126 -64.5t-54 -150.5z" />
<glyph unicode="A" horiz-adv-x="1425" d="M18 0l533 1366h307l547 -1366h-301l-119 311h-565l-117 -311h-285zM504 535h397l-176 483q-14 39 -27 90l-10 -41q-8 -35 -20 -72z" />
<glyph unicode="B" horiz-adv-x="1232" d="M166 0v1366h438q236 0 342 -76q137 -96 137 -272q0 -252 -270 -303q152 -20 236 -108.5t84 -229.5q0 -209 -177 -309q-70 -41 -143.5 -54.5t-230.5 -13.5h-416zM442 209h136q135 0 206.5 51t71.5 148q0 98 -67.5 150t-194.5 52h-152v-401zM442 813h131q233 0 234 168 q0 174 -223 174h-142v-342z" />
<glyph unicode="C" horiz-adv-x="1206" d="M100 686q0 319 193 504q199 186 524 186q158 0 338 -59l-22 -234q-135 74 -289 74q-207 0 -329 -124t-122 -337q0 -211 128 -344t331 -133q145 0 299 57l10 -241q-170 -45 -319 -45q-350 0 -546 183t-196 513z" />
<glyph unicode="D" horiz-adv-x="1427" d="M164 0v1366h311q227 0 367.5 -30.5t240.5 -100.5q246 -172 246 -547q0 -389 -246 -563q-178 -125 -524 -125h-395zM440 209h56q141 0 222 20.5t146 71.5q172 135 172 381q0 133 -53 239.5t-152 163.5q-63 37 -144 51.5t-247 16.5v-944z" />
<glyph unicode="E" horiz-adv-x="1099" d="M164 0v1366h809v-223h-533v-332h488v-223h-488v-365h541v-223h-817z" />
<glyph unicode="F" horiz-adv-x="1005" d="M164 0v1366h758v-223h-482v-326h463v-223h-461v-594h-278z" />
<glyph unicode="G" horiz-adv-x="1429" d="M100 690q0 317 208 501.5t566 184.5q195 0 377 -55l-18 -242q-170 76 -363 76q-225 0 -351 -124t-126 -343q0 -217 126 -348t337 -131q82 0 170 29v331h-291v224h553v-732q-203 -72 -459 -71q-334 0 -516 160q-100 88 -156.5 231t-56.5 309z" />
<glyph unicode="H" horiz-adv-x="1423" d="M164 0v1366h276v-555h543v555h277v-1366h-277v588h-543v-588h-276z" />
<glyph unicode="I" horiz-adv-x="630" d="M178 0v1366h277v-1366h-277z" />
<glyph unicode="J" horiz-adv-x="774" d="M27 16l8 234q61 -20 117 -21q115 0 157 80q25 41 25 152v905h276v-932q0 -221 -80 -319q-100 -127 -309 -127q-88 -1 -194 28z" />
<glyph unicode="K" horiz-adv-x="1316" d="M166 0v1366h276v-485q0 -53 -6 -109q47 68 72 94l428 500h332l-559 -631l589 -735h-356l-440 563q-43 55 -66 90q6 -47 6 -121v-532h-276z" />
<glyph unicode="L" horiz-adv-x="1007" d="M164 0v1366h276v-1143h533v-223h-809z" />
<glyph unicode="M" horiz-adv-x="1875" d="M164 0v1366h436l248 -717q55 -156 88 -336q4 14 7 31.5t3 20.5q25 117 62 225l262 776h442v-1366h-276v807q0 104 18 369h-8q-20 -82 -41 -142l-348 -1034h-254l-295 856q-49 143 -94 320h-8q20 -201 20 -357v-819h-262z" />
<glyph unicode="N" horiz-adv-x="1452" d="M164 0v1366h325l457 -827q41 -74 82 -187q0 -4 8 -23.5l13 -31.5q-2 39 -9 74q-14 121 -14 262v733h262v-1366h-334l-446 825q-61 115 -113 242q31 -221 31 -352v-715h-262z" />
<glyph unicode="O" horiz-adv-x="1533" d="M100 680q0 326 168 516q84 94 216 147.5t282 53.5q311 0 490.5 -192.5t179.5 -528.5q0 -143 -43 -274.5t-121 -221.5q-176 -211 -506 -211q-307 0 -486.5 191.5t-179.5 519.5zM393 682q0 -223 103.5 -362.5t271.5 -139.5q180 0 281 154q94 145 94 342q0 227 -104.5 368.5 t-272.5 141.5q-166 0 -269.5 -140.5t-103.5 -363.5z" />
<glyph unicode="P" horiz-adv-x="1124" d="M164 0v1366h375q254 0 379 -88q166 -119 165.5 -334t-163.5 -340q-121 -90 -355 -90q-51 0 -125 4v-518h-276zM440 731q25 -2 56 -2q129 0 180 25q115 51 115 188q0 164 -152 203q-37 10 -199 12v-426z" />
<glyph unicode="Q" horiz-adv-x="1533" d="M100 680q0 340 181 530q180 186 489 187q305 0 485.5 -192.5t180.5 -520.5q0 -260 -123 -453q-74 -115 -232 -196l326 -299h-338l-235 237q-39 -2 -91 -2q-293 0 -468 192.5t-175 516.5zM393 682q0 -223 103.5 -361.5t271.5 -138.5q182 0 279 146q96 150 96 354 q0 225 -103.5 364.5t-271.5 139.5q-166 0 -270.5 -140.5t-104.5 -363.5z" />
<glyph unicode="R" horiz-adv-x="1220" d="M164 0v1366h448q250 0 359 -80q133 -94 133 -280q0 -133 -73 -218.5t-204 -103.5q57 -23 91 -63.5t77 -145.5l197 -475h-307l-150 387q-41 109 -86 144.5t-141 35.5h-66v-567h-278zM440 778h123q248 0 248 197q0 178 -225 178h-146v-375z" />
<glyph unicode="S" horiz-adv-x="1105" d="M117 995q0 190 127 296t356 106q172 0 324 -54l-23 -225q-156 68 -285 68q-100 0 -158.5 -44t-58.5 -120q0 -88 84 -135q37 -20 187 -80q180 -72 259 -167t79 -243q0 -199 -137.5 -313.5t-374.5 -114.5q-176 0 -353 64l25 246q160 -90 307 -91q111 0 175.5 51.5 t64.5 139.5t-66 131q-41 29 -157 76q-174 68 -254 135q-121 100 -121 274z" />
<glyph unicode="T" d="M18 1143v223h1059v-223h-393v-1143h-276v1143h-390z" />
<glyph unicode="U" horiz-adv-x="1443" d="M164 541v825h276v-801q0 -113 14.5 -172t53.5 -108q78 -96 221 -97q168 0 242 138q25 47 33 96t8 153v791h268v-829q0 -291 -138 -429.5t-429 -138.5t-432 162q-117 131 -117 410z" />
<glyph unicode="V" horiz-adv-x="1316" d="M18 1366h295l291 -879q41 -127 66 -219q43 160 69 240l283 858h274l-465 -1366h-337z" />
<glyph unicode="W" horiz-adv-x="1970" d="M18 1366h285l131 -522q113 -451 129 -596h8l37 233q2 8 12 53l17 82l27 132l139 618h368l136 -559q86 -360 112 -559h8q39 258 138 651l116 467h271l-361 -1366h-350l-123 514q0 2 -51 234l-59 272q-8 37 -19 121h-8q-27 -176 -98 -504l-144 -637h-354z" />
<glyph unicode="X" horiz-adv-x="1316" d="M18 0l451 717l-410 649h318l291 -483l293 483h292l-413 -649l456 -717h-325l-320 537l-323 -537h-310z" />
<glyph unicode="Y" horiz-adv-x="1306" d="M18 1366h322l293 -508q18 -35 31 -65q6 18 30 61l299 512h295l-493 -813v-553h-277v547z" />
<glyph unicode="Z" horiz-adv-x="1093" d="M68 0v236l565 806l54 74t34 31q-20 -4 -94 -4h-541v223h913v-256l-571 -819q-33 -45 -63 -74q43 6 96 6h561v-223h-954z" />
<glyph unicode="[" horiz-adv-x="749" d="M166 -416v1891h436v-183h-196v-1523h196v-185h-436z" />
<glyph unicode="\" horiz-adv-x="892" d="M82 1475h217l666 -1891h-220z" />
<glyph unicode="]" horiz-adv-x="749" d="M147 -231h197v1523h-197v183h437v-1891h-437v185z" />
<glyph unicode="^" horiz-adv-x="1024" d="M12 688l330 686h340l332 -686h-273l-229 479l-229 -479h-271z" />
<glyph unicode="_" horiz-adv-x="1024" d="M0 -96h1024v-234h-1024v234z" />
<glyph unicode="`" horiz-adv-x="1024" d="M199 1464h270l164 -278h-156z" />
<glyph unicode="a" horiz-adv-x="1101" d="M76 301q0 328 508 328q51 0 147 -8v10q0 215 -225 215q-170 0 -313 -111l-9 226q166 72 351 71q266 0 372 -147q37 -53 50.5 -129t13.5 -240v-147q0 -160 10 -369h-233l-5 150q-100 -166 -323 -166q-156 0 -250 86t-94 231zM336 293q0 -59 44 -95t113.5 -36t127 38 t88.5 103q27 59 26 158q-49 4 -71 4q-328 0 -328 -172z" />
<glyph unicode="b" horiz-adv-x="1198" d="M131 0v1475h262v-451q0 -92 -10 -188q102 197 328 196q193 0 301 -136t108 -376q0 -254 -110.5 -395t-309.5 -141q-223 0 -317 176l-6 -160h-246zM395 499.5q0 -139.5 63.5 -224.5t166.5 -85q98 0 160.5 87.5t62.5 226.5q0 145 -58.5 227t-158.5 82q-106 0 -171 -87 t-65 -226.5z" />
<glyph unicode="c" horiz-adv-x="882" d="M76 512q0 229 131 360q150 150 385 150q90 0 219 -33l-20 -211q-88 33 -156 33q-129 0 -208 -83t-79 -220q0 -133 80 -215t211 -82q88 0 180 41l15 -221q-133 -39 -238 -39q-240 0 -380 139t-140 381z" />
<glyph unicode="d" horiz-adv-x="1202" d="M76 524q0 229 115.5 368.5t304.5 139.5q211 0 315 -186q-10 92 -10 178v451h262v-1180q0 -152 8 -295h-248l-4 172q-92 -188 -319 -188q-201 0 -312.5 143t-111.5 397zM348 512q0 -145 62.5 -233.5t165 -88.5t166 85t63.5 223q0 143 -65.5 229t-174.5 86 q-100 0 -158.5 -81t-58.5 -220z" />
<glyph unicode="e" horiz-adv-x="1095" d="M74 510q0 244 133 387t356 143q213 0 335 -134t122 -367q0 -51 -6 -115h-682q10 -119 90 -187.5t209 -68.5q143 0 317 104l4 -227q-160 -72 -352 -72q-250 0 -388 141.5t-138 395.5zM328 606h442q-2 119 -58.5 184.5t-154.5 65.5q-94 0 -155.5 -66.5t-73.5 -183.5z" />
<glyph unicode="f" horiz-adv-x="663" d="M-68 819v195h203q4 150 15.5 212t44.5 115q88 139 307 140q61 0 137 -19l-16 -211q-39 10 -70 11q-104 0 -139 -88q-16 -37 -17 -160h230v-195h-230v-819h-262v819h-203z" />
<glyph unicode="g" horiz-adv-x="1185" d="M76 518q0 242 112.5 378t311.5 136q219 0 311 -184l4 164h250v-889q0 -156 -26.5 -248t-92.5 -162q-139 -145 -407 -145q-172 0 -357 72l21 227q166 -86 307 -86q203 0 272 147q18 37 24.5 84t12.5 191q-111 -203 -342 -203q-184 0 -292.5 140t-108.5 378zM348 522 q0 -139 61.5 -224t162 -85t167 86t66.5 213q0 133 -66.5 218t-169.5 85q-100 0 -160.5 -80t-60.5 -213z" />
<glyph unicode="h" horiz-adv-x="1189" d="M133 0v1475h262v-605q113 162 320 162t291 -137q59 -96 59 -313v-582h-262v492q0 176 -27 227q-51 94 -153 94q-68 0 -122.5 -40t-80.5 -109q-25 -70 -25 -250v-414h-262z" />
<glyph unicode="i" horiz-adv-x="528" d="M129 1198v248h270v-248h-270zM133 0v1014h262v-1014h-262z" />
<glyph unicode="j" horiz-adv-x="540" d="M-27 -412l11 193q14 -2 36 -2q74 0 109 63q18 31 18 133v1039h263v-1075q0 -360 -310 -361q-57 0 -127 10zM143 1198v248h271v-248h-271z" />
<glyph unicode="k" horiz-adv-x="1079" d="M133 0v1475h262v-687q0 -92 -6 -198q59 88 86 121l244 303h305l-377 -455l426 -559h-332l-262 371q-53 76 -90 145q6 -53 6 -133v-383h-262z" />
<glyph unicode="l" horiz-adv-x="526" d="M133 0v1475h262v-1475h-262z" />
<glyph unicode="m" horiz-adv-x="1755" d="M133 1014h252l4 -154q111 170 318 170q197 0 282 -180q104 180 320 180q197 0 276 -147q47 -92 47 -295v-588h-262v492q0 162 -18 217q-37 102 -140 102q-111 0 -163 -119q-31 -70 -31 -223v-469h-262v518q0 162 -23 209q-41 84 -131 84q-98 0 -160 -102 q-39 -66 -39 -201v-508h-262v766q0 133 -8 248z" />
<glyph unicode="n" horiz-adv-x="1198" d="M133 1014h246l8 -162q51 72 90 102q98 76 254 76q190 0 281 -131q63 -94 63 -328v-571h-262v510q0 160 -42 230.5t-138 70.5q-131 0 -193 -123q-35 -68 -34 -207v-481h-263v645q0 179 -10 369z" />
<glyph unicode="o" horiz-adv-x="1202" d="M76 510q0 238 145.5 384t380.5 146q238 0 382 -148.5t144 -395.5q0 -233 -146 -378t-381.5 -145t-380 147.5t-144.5 389.5zM348 510q0 -154 69.5 -248t184.5 -94q113 0 183.5 93t70.5 239q0 156 -69.5 251t-184.5 95q-113 0 -183.5 -94.5t-70.5 -241.5z" />
<glyph unicode="p" horiz-adv-x="1206" d="M133 1014h252l4 -160q121 176 326 176q193 0 305.5 -138t112.5 -376q0 -248 -113 -390t-309 -142q-215 0 -308 159q2 -63 3 -155v-404h-263v1135q0 111 -10 295zM406 498q0 -143 61 -225.5t168 -82.5q100 0 162.5 86t62.5 224q0 147 -57.5 229t-159.5 82q-111 0 -174 -84 t-63 -229z" />
<glyph unicode="q" horiz-adv-x="1196" d="M76 522q0 231 113.5 369.5t304.5 138.5q225 0 317 -178l6 162h248v-1430h-262v402q0 113 8 182q-84 -184 -315 -184q-195 0 -307.5 144t-112.5 394zM348 506q0 -150 58.5 -233t162.5 -83q106 0 171 83t65 221q0 141 -65.5 229t-172.5 88q-102 0 -160.5 -82t-58.5 -223z " />
<glyph unicode="r" horiz-adv-x="768" d="M133 1014h240l4 -258q72 266 285 266q41 0 77 -12v-244q-55 14 -90 14q-133 0 -200 -112q-45 -74 -46 -250v-418h-262v709q0 203 -8 305z" />
<glyph unicode="s" horiz-adv-x="880" d="M84 717q0 143 111.5 228t302.5 85q121 0 264 -37l-19 -198q-113 41 -223 41q-78 0 -127 -30t-49 -77q0 -37 35 -59.5t151 -61.5q127 -43 168 -73q104 -76 105 -226q0 -154 -110.5 -240.5t-307.5 -86.5q-123 0 -297 45l12 221q133 -72 254 -72q82 0 133.5 32t51.5 85 q0 45 -52 76q-31 18 -145 57q-137 47 -197.5 114.5t-60.5 176.5z" />
<glyph unicode="t" horiz-adv-x="755" d="M2 819v195h195v200l260 86v-286h233v-195h-233v-377q0 -133 24 -174q37 -66 127 -65q29 0 92 14l9 -205q-94 -20 -174 -20q-180 0 -261 94t-81 303v430h-191z" />
<glyph unicode="u" horiz-adv-x="1189" d="M125 442v572h262v-488q0 -164 29 -229q41 -94 151 -94q215 0 215 336v475h262v-619q0 -186 13 -395h-246l-8 156q-109 -172 -334 -172q-199 0 -285 143q-59 104 -59 315z" />
<glyph unicode="v" horiz-adv-x="1087" d="M18 1014h287l170 -488q68 -193 82 -301q18 100 64 234l182 555h264l-377 -1014h-293z" />
<glyph unicode="w" horiz-adv-x="1748" d="M18 1014h277l119 -365q86 -266 110 -446q16 150 90 401l121 410h303l144 -457q68 -215 84 -348q14 127 77 352l132 453h254l-314 -1014h-305l-127 393q-82 250 -100 412q-18 -119 -47 -221l-25 -88l-20 -80l-127 -416h-302z" />
<glyph unicode="x" horiz-adv-x="1099" d="M18 0l353 524l-320 490h309l168 -273q35 -57 37 -63q12 27 43 78l156 258h276l-307 -490l346 -524h-315l-184 307l-19 29q-6 12 -24 43l-45 -78l-185 -301h-289z" />
<glyph unicode="y" horiz-adv-x="1093" d="M18 1014h291l209 -619l43 -135l49 168l197 586h266l-403 -1084q-74 -193 -148 -264q-100 -94 -268 -94q-72 0 -145 20l-23 7l18 198q59 -23 107 -22q78 0 123 37.5t84 136.5z" />
<glyph unicode="z" horiz-adv-x="987" d="M68 0v201l421 508q43 51 115 116q-23 -2 -47 -2l-84 -2h-381v193h803v-203l-426 -512q-47 -57 -109 -111q96 12 238 13h315v-201h-845z" />
<glyph unicode="{" horiz-adv-x="749" d="M53 438v183q59 16 86 59t27 125v375q0 195 119 256q47 27 95 32t220 7v-181h-39q-94 0 -121 -24q-23 -18 -28.5 -49t-5.5 -121v-314q0 -104 -26 -155t-99 -103q72 -45 98.5 -100t26.5 -158v-311q0 -135 29.5 -165t164.5 -27v-183q-170 2 -218 8.5t-97 30.5 q-119 63 -119 256v373q0 90 -26 132t-87 54z" />
<glyph unicode="|" horiz-adv-x="1024" d="M383 -342v1708h260v-1708h-260z" />
<glyph unicode="}" horiz-adv-x="749" d="M150 -233q16 -2 38 -3q94 0 123 25q23 18 29 49t6 123v311q0 104 25.5 156.5t99.5 101.5q-72 45 -98.5 100.5t-26.5 157.5v312q0 135 -29.5 164.5t-166.5 29.5v181q176 -2 223 -7.5t94 -31.5q119 -63 119 -254v-375q0 -90 24.5 -131t85.5 -55v-183q-111 -27 -110 -184 v-375q0 -190 -119 -256q-49 -25 -98.5 -31t-218.5 -8v183z" />
<glyph unicode="~" horiz-adv-x="1366" d="M184 1243q4 10 10.5 21.5t6.5 13.5q37 86 62.5 125t66.5 70q70 53 164 53q74 0 213 -53q129 -49 180 -50q47 0 78.5 22.5t66.5 84.5l148 -86q-76 -160 -148 -213q-82 -57 -176 -57q-49 0 -207 55q-131 47 -170 47q-51 0 -81.5 -25.5t-69.5 -101.5z" />
<glyph unicode="&#xa1;" horiz-adv-x="741" d="M164 -350l43 973h219l45 -973h-307zM180 762v252h271v-252h-271z" />
<glyph unicode="&#xa2;" d="M154 686q0 213 113.5 343t326.5 163v170h102v-164q94 -6 195 -33l-21 -213q-88 35 -153 35h-21v-606h11q96 0 192 45l12 -221q-115 -29 -215 -35v-170h-102v170q-215 33 -327.5 164t-112.5 352zM426 682q0 -197 168 -279v562q-168 -84 -168 -283z" />
<glyph unicode="&#xa3;" d="M102 0v207h174v440h-151v146h151q0 193 25 290q35 147 160 226.5t319 79.5q104 0 234 -33l-13 -223q-90 33 -182 32q-215 0 -256 -180q-14 -68 -14 -192h305v-146h-305v-440h457v-207h-904z" />
<glyph unicode="&#xa4;" d="M35 1016l112 114l172 -169q111 72 232 71q119 0 225 -69l168 165l113 -112l-166 -168q76 -117 76 -230q0 -117 -74 -225l170 -168l-113 -114l-168 170q-113 -76 -235 -76q-113 0 -230 74l-167 -166l-113 110l168 170q-74 104 -74 228q0 121 76 225zM322 618.5 q0 -94.5 66.5 -161t160.5 -66.5t160.5 66.5t66.5 161t-66.5 161t-158.5 66.5q-96 0 -162.5 -66.5t-66.5 -161z" />
<glyph unicode="&#xa5;" d="M-18 1366h321l225 -510l11 -20q6 -12 18 -43q6 18 16 38q12 18 13 23l233 512h299l-260 -492h223v-145h-303l-65 -129h368v-145h-395v-455h-272v455h-383v145h354l-66 129h-288v145h209z" />
<glyph unicode="&#xa6;" horiz-adv-x="1024" d="M383 313h260v-655h-260v655zM383 657v709h260v-709h-260z" />
<glyph unicode="&#xa7;" d="M88 -365l18 238q180 -92 381 -92q106 0 169 43t63 117q0 88 -94 143q-49 29 -250 115q-287 123 -287 354q0 90 38 156.5t132 136.5q-88 72 -120 129t-32 139q0 174 130.5 280.5t341.5 106.5q152 0 354 -55l-25 -221q-184 63 -323 63q-106 0 -166 -43t-60 -119 q0 -72 74 -127q39 -29 281 -129q295 -123 295 -344q0 -127 -84 -221q-29 -35 -101 -76q152 -98 152 -268q0 -184 -150 -305q-123 -98 -323 -98q-181 -1 -414 77zM291 606q0 -61 33.5 -105t115.5 -83q53 -29 265 -117q94 86 94 178q0 68 -51.5 116t-180.5 103l-106 45l-32 16 q-28 13 -48 21q-90 -90 -90 -174z" />
<glyph unicode="&#xa8;" horiz-adv-x="1024" d="M209 1210v230h223v-230h-223zM596 1210v230h221v-230h-221z" />
<glyph unicode="&#xa9;" horiz-adv-x="1615" d="M100 682q0 299 209 507t512 208q285 0 491 -211t206 -502q0 -297 -207 -506t-500 -209t-502 210t-209 503zM240 682q0 -242 167.5 -415t403.5 -173q233 0 400 173t167 415t-164.5 416t-394.5 174q-244 0 -411.5 -171t-167.5 -419zM416 694q0 182 118.5 289t321.5 107 q92 0 213 -37l-16 -152q-86 47 -183 47q-121 0 -190.5 -67.5t-69.5 -182t75 -185.5t194 -71q84 0 186 35l6 -155q-109 -27 -201 -27q-215 0 -334.5 105.5t-119.5 293.5z" />
<glyph unicode="&#xaa;" horiz-adv-x="735" d="M72 954q0 203 329 203q37 0 84 -4q-2 115 -131 115q-109 0 -209 -76l-4 160q109 45 230 45q172 0 241 -92q43 -59 43 -224v-88q0 -117 7 -225h-166l-2 70q-80 -80 -197 -80q-102 0 -163.5 54t-61.5 142zM78 565v117h584v-117h-584zM254 950q0 -31 24.5 -49t65.5 -18 q66 0 104.5 43t38.5 114h-36q-197 0 -197 -90z" />
<glyph unicode="&#xab;" horiz-adv-x="1099" d="M94 512l228 399h247l-211 -399l217 -406h-247zM543 512l227 399h248l-211 -399l215 -406h-246z" />
<glyph unicode="&#xac;" horiz-adv-x="1024" d="M68 303v242h886v-545h-260v303h-626z" />
<glyph unicode="&#xad;" horiz-adv-x="499" d="M0 403v220h500v-220h-500z" />
<glyph unicode="&#xae;" horiz-adv-x="1615" d="M100 682q0 299 209 507t512 208q285 0 491 -211t206 -502q0 -297 -207 -506t-500 -209t-502 210t-209 503zM240 682q0 -242 167.5 -415t403.5 -173q233 0 400 173t167 415t-164.5 416t-394.5 174q-244 0 -411.5 -171t-167.5 -419zM532 301v782h279q154 0 221 -45 q84 -57 84 -166q0 -70 -38 -117.5t-105 -64.5q29 -20 42 -39.5t36 -68.5l123 -281h-205l-92 221q-25 59 -49.5 77.5t-77.5 18.5h-31v-317h-187zM717 756h65q139 0 140 100q0 88 -125 88h-80v-188z" />
<glyph unicode="&#xaf;" horiz-adv-x="1024" d="M195 1247v139h636v-139h-636z" />
<glyph unicode="&#xb0;" horiz-adv-x="772" d="M72 1196q0 125 93 215t222 90q131 0 222 -90t91 -219t-92 -220t-221 -91q-133 0 -224 92t-91 223zM227 1194q0 -68 47.5 -115t113 -47t111.5 47t46 112.5t-47 112t-113 46.5q-63 0 -110.5 -46.5t-47.5 -109.5z" />
<glyph unicode="&#xb1;" d="M72 150v178h956v-178h-956zM72 770v178h383v348h188v-348h385v-178h-385v-346h-188v346h-383z" />
<glyph unicode="&#xb2;" horiz-adv-x="505" d="M43 819v107q252 209 252 293q0 31 -22.5 49t-59.5 18q-66 0 -147 -53l-13 119q100 43 190.5 43t143.5 -45t53 -121q0 -127 -211 -303h228v-107h-414z" />
<glyph unicode="&#xb3;" horiz-adv-x="505" d="M43 834l8 114q74 -33 142 -33q113 0 112 72q0 70 -133 70h-53v108q23 -2 47 -2q137 0 137 70q0 57 -94 57q-72 0 -141 -35l-9 113q98 27 168 27q102 0 159.5 -40t57.5 -112q0 -86 -86 -127q90 -37 91 -139q0 -76 -66 -121t-180 -45q-82 0 -160 23z" />
<glyph unicode="&#xb4;" horiz-adv-x="1024" d="M391 1186l164 278h270l-278 -278h-156z" />
<glyph unicode="&#xb5;" horiz-adv-x="1024" d="M53 -354v1337h260v-522q0 -96 13.5 -144.5t52.5 -87.5q57 -57 137 -57q86 0 139.5 69.5t53.5 227.5v514h260v-983h-260v119q-68 -139 -199 -139q-121 0 -197 124v-458h-260z" />
<glyph unicode="&#xb6;" d="M41 963q0 240 143 340q92 63 265 63h567v-199h-82v-1583h-205v1583h-158v-1583h-204v991h-23q-135 0 -219 108t-84 280z" />
<glyph unicode="&#xb7;" horiz-adv-x="546" d="M133 379v268h279v-268h-279z" />
<glyph unicode="&#xb8;" horiz-adv-x="1024" d="M289 -375l39 86q76 -39 137 -39q49 0 77.5 19.5t28.5 54.5q0 31 -24.5 49.5t-65.5 18.5q-29 0 -71 -11l-41 45l94 152h104l-73 -113q47 8 77 9q72 0 117 -35t45 -92q0 -82 -70.5 -135.5t-177.5 -53.5q-90 0 -196 45z" />
<glyph unicode="&#xb9;" horiz-adv-x="505" d="M53 1249l187 135h116v-565h-137v416l-92 -72z" />
<glyph unicode="&#xba;" horiz-adv-x="935" d="M127 1073.5q0 145.5 94 234.5t246 89q156 0 249 -91.5t93 -240.5q0 -141 -95.5 -229t-247 -88t-245.5 90t-94 235.5zM147 565v117h641v-117h-641zM317 1073q0 -86 42 -138t110 -52q66 0 107.5 51t41.5 133q0 88 -40.5 141.5t-110.5 53.5q-66 0 -108 -52.5t-42 -136.5z " />
<glyph unicode="&#xbb;" horiz-adv-x="1099" d="M78 106l213 406l-211 399h250l227 -399l-233 -406h-246zM524 106l215 406l-211 399h248l230 -399l-234 -406h-248z" />
<glyph unicode="&#xbc;" horiz-adv-x="1826" d="M80 1176l266 194h164v-823h-191v618l-137 -110zM451 -63l776 1493h147l-776 -1493h-147zM1128 162v149l324 514h236v-520h110v-143h-110v-162h-191v162h-369zM1313 305h188l2 324z" />
<glyph unicode="&#xbd;" horiz-adv-x="1826" d="M80 1176l266 194h164v-823h-191v618l-137 -110zM451 -63l776 1493h147l-776 -1493h-147zM1159 0v150q369 311 369 432q0 49 -34 77.5t-91 28.5q-96 0 -211 -76l-16 166q147 59 272 60q129 0 206 -64.5t77 -173.5q0 -117 -138 -276q-78 -92 -176 -179l338 2v-147h-596z " />
<glyph unicode="&#xbe;" horiz-adv-x="1826" d="M61 563l13 162q106 -47 202 -47q80 0 125 29.5t45 80.5q0 109 -202 109q-39 0 -72 -2v152q31 -2 64 -3q207 0 206 107q0 88 -143 88q-102 0 -201 -47l-12 154q131 39 240 38q150 0 231.5 -57t81.5 -162q0 -131 -131 -188q139 -53 139 -203q0 -113 -95 -177.5t-261 -64.5 q-117 0 -230 31zM453 -63l776 1493h147l-776 -1493h-147zM1128 162v149l324 514h236v-520h110v-143h-110v-162h-191v162h-369zM1313 305h188l2 324z" />
<glyph unicode="&#xbf;" horiz-adv-x="1040" d="M55 -23q0 86 37 154t156 201q88 94 111.5 145t27.5 148h238q-2 -141 -30 -209t-126 -174q-125 -133 -125 -234q0 -76 60.5 -121t162.5 -45q129 0 299 76l21 -225q-199 -66 -393 -66q-201 0 -320 95t-119 255zM371 762v252h270v-252h-270z" />
<glyph unicode="&#xc0;" horiz-adv-x="1425" d="M18 0l533 1366h307l547 -1366h-301l-119 311h-565l-117 -311h-285zM375 1772h266l164 -267h-170zM504 535h397l-176 483q-14 39 -27 90l-10 -41q-8 -35 -20 -72z" />
<glyph unicode="&#xc1;" horiz-adv-x="1425" d="M18 0l533 1366h307l547 -1366h-301l-119 311h-565l-117 -311h-285zM504 535h397l-176 483q-14 39 -27 90l-10 -41q-8 -35 -20 -72zM621 1505l163 267h267l-260 -267h-170z" />
<glyph unicode="&#xc2;" horiz-adv-x="1425" d="M18 0l533 1366h307l547 -1366h-301l-119 311h-565l-117 -311h-285zM381 1505l215 267h229l215 -267h-204l-125 156l-125 -156h-205zM504 535h397l-176 483q-14 39 -27 90l-10 -41q-8 -35 -20 -72z" />
<glyph unicode="&#xc3;" horiz-adv-x="1425" d="M18 0l533 1366h307l547 -1366h-301l-119 311h-565l-117 -311h-285zM371 1520q20 94 53 141q70 94 176 94q61 0 172 -49q70 -33 102 -33q35 0 55.5 19.5t35.5 64.5h114q-10 -109 -67.5 -170t-149.5 -61q-35 0 -57.5 7t-112.5 44q-74 31 -106 31q-74 0 -101 -88h-114z M504 535h397l-176 483q-14 39 -27 90l-10 -41q-8 -35 -20 -72z" />
<glyph unicode="&#xc4;" horiz-adv-x="1425" d="M18 0l533 1366h307l547 -1366h-301l-119 311h-565l-117 -311h-285zM375 1518v235h235v-235h-235zM504 535h397l-176 483q-14 39 -27 90l-10 -41q-8 -35 -20 -72zM801 1518v235h235v-235h-235z" />
<glyph unicode="&#xc5;" horiz-adv-x="1425" d="M18 0l533 1366h307l547 -1366h-301l-119 311h-565l-117 -311h-285zM496 1653q0 86 62.5 147.5t150.5 61.5q84 0 145 -62.5t61 -148.5q0 -88 -61 -149.5t-147 -61.5q-88 0 -149.5 62.5t-61.5 150.5zM504 535h397l-176 483q-14 39 -27 90l-10 -41q-8 -35 -20 -72zM618 1651 q0 -35 26 -61.5t63 -26.5q35 0 60.5 25.5t25.5 62.5q0 35 -26 61.5t-60 26.5q-37 0 -63 -25.5t-26 -62.5z" />
<glyph unicode="&#xc6;" horiz-adv-x="1843" d="M-10 0l747 1366h973v-223h-532l30 -336h461v-223h-442l35 -361h462v-223h-720l-25 311h-526l-168 -311h-295zM569 535h389l-47 575v23l-2 18v23q-2 -6 -6 -15l-4 -6l-10 -18l-12 -25z" />
<glyph unicode="&#xc7;" horiz-adv-x="1206" d="M100 686q0 319 193 504q199 186 524 186q158 0 338 -59l-22 -234q-135 74 -289 74q-207 0 -329 -124t-122 -337q0 -211 128 -344t331 -133q145 0 299 57l10 -241q-150 -43 -344 -45l-72 -113q43 10 82 10q78 0 123 -36.5t45 -100.5q0 -84 -70.5 -138t-183.5 -54 q-94 0 -200 45l39 94q72 -39 137 -39q106 0 106 78q0 68 -96 67q-31 0 -65 -10l-41 45l98 158q-295 31 -457 211t-162 479z" />
<glyph unicode="&#xc8;" horiz-adv-x="1099" d="M164 0v1366h809v-223h-533v-332h488v-223h-488v-365h541v-223h-817zM250 1772h266l164 -267h-170z" />
<glyph unicode="&#xc9;" horiz-adv-x="1099" d="M164 0v1366h809v-223h-533v-332h488v-223h-488v-365h541v-223h-817zM473 1505l164 267h266l-260 -267h-170z" />
<glyph unicode="&#xca;" horiz-adv-x="1099" d="M164 0v1366h809v-223h-533v-332h488v-223h-488v-365h541v-223h-817zM246 1505l215 267h229l215 -267h-205l-125 156l-124 -156h-205z" />
<glyph unicode="&#xcb;" horiz-adv-x="1099" d="M164 0v1366h809v-223h-533v-332h488v-223h-488v-365h541v-223h-817zM244 1518v235h235v-235h-235zM670 1518v235h235v-235h-235z" />
<glyph unicode="&#xcc;" horiz-adv-x="630" d="M-16 1772h266l164 -267h-170zM176 0v1366h277v-1366h-277z" />
<glyph unicode="&#xcd;" horiz-adv-x="630" d="M178 0v1366h277v-1366h-277zM231 1505l164 267h267l-261 -267h-170z" />
<glyph unicode="&#xce;" horiz-adv-x="630" d="M12 1505l195 267h229l195 -267h-197l-112 164l-111 -164h-199zM176 0v1366h277v-1366h-277z" />
<glyph unicode="&#xcf;" horiz-adv-x="630" d="M47 1518v235h215v-235h-215zM178 0v1366h277v-1366h-277zM371 1518v235h215v-235h-215z" />
<glyph unicode="&#xd0;" horiz-adv-x="1427" d="M27 608v191h137v567h311q420 0 606 -131q246 -174 246 -549q0 -387 -246 -561q-172 -125 -522 -125h-395v608h-137zM440 209h54q147 0 226 20.5t146 73.5q166 135 166 375q0 279 -201 407q-59 37 -139 51.5t-252 16.5v-354h287v-191h-287v-399z" />
<glyph unicode="&#xd1;" horiz-adv-x="1452" d="M164 0v1366h325l457 -827q41 -74 82 -187q0 -4 8 -23.5l13 -31.5q-2 39 -9 74q-14 121 -14 262v733h262v-1366h-334l-446 825q-61 115 -113 242q31 -221 31 -352v-715h-262zM406 1520q20 94 53 141q70 94 176 94q61 0 172 -49q70 -33 102 -33q35 0 55.5 19.5t34.5 64.5 h115q-10 -109 -67.5 -170t-149.5 -61q-35 0 -57.5 7t-112.5 44q-74 31 -106 31q-74 0 -101 -88h-114z" />
<glyph unicode="&#xd2;" horiz-adv-x="1533" d="M100 680q0 326 168 516q84 94 216 147.5t282 53.5q311 0 490.5 -192.5t179.5 -528.5q0 -143 -43 -274.5t-121 -221.5q-176 -211 -506 -211q-307 0 -486.5 191.5t-179.5 519.5zM393 682q0 -223 103.5 -362.5t271.5 -139.5q180 0 281 154q94 145 94 342q0 227 -104.5 368.5 t-272.5 141.5q-166 0 -269.5 -140.5t-103.5 -363.5zM451 1772h266l164 -267h-170z" />
<glyph unicode="&#xd3;" horiz-adv-x="1533" d="M100 680q0 326 168 516q84 94 216 147.5t282 53.5q311 0 490.5 -192.5t179.5 -528.5q0 -143 -43 -274.5t-121 -221.5q-176 -211 -506 -211q-307 0 -486.5 191.5t-179.5 519.5zM393 682q0 -223 103.5 -362.5t271.5 -139.5q180 0 281 154q94 145 94 342q0 227 -104.5 368.5 t-272.5 141.5q-166 0 -269.5 -140.5t-103.5 -363.5zM676 1505l164 267h266l-260 -267h-170z" />
<glyph unicode="&#xd4;" horiz-adv-x="1533" d="M100 680q0 326 168 516q84 94 216 147.5t282 53.5q311 0 490.5 -192.5t179.5 -528.5q0 -143 -43 -274.5t-121 -221.5q-176 -211 -506 -211q-307 0 -486.5 191.5t-179.5 519.5zM393 682q0 -223 103.5 -362.5t271.5 -139.5q180 0 281 154q94 145 94 342q0 227 -104.5 368.5 t-272.5 141.5q-166 0 -269.5 -140.5t-103.5 -363.5zM444 1505l215 267h230l215 -267h-205l-125 156l-125 -156h-205z" />
<glyph unicode="&#xd5;" horiz-adv-x="1533" d="M100 680q0 326 168 516q84 94 216 147.5t282 53.5q311 0 490.5 -192.5t179.5 -528.5q0 -143 -43 -274.5t-121 -221.5q-176 -211 -506 -211q-307 0 -486.5 191.5t-179.5 519.5zM393 682q0 -223 103.5 -362.5t271.5 -139.5q180 0 281 154q94 145 94 342q0 227 -104.5 368.5 t-272.5 141.5q-166 0 -269.5 -140.5t-103.5 -363.5zM434 1520q20 94 53 141q70 94 177 94q61 0 172 -49q70 -33 102 -33q35 0 55.5 19.5t34.5 64.5h115q-10 -109 -67.5 -170t-149.5 -61q-35 0 -57.5 7t-112.5 44q-74 31 -107 31q-74 0 -100 -88h-115z" />
<glyph unicode="&#xd6;" horiz-adv-x="1533" d="M100 680q0 326 168 516q84 94 216 147.5t282 53.5q311 0 490.5 -192.5t179.5 -528.5q0 -143 -43 -274.5t-121 -221.5q-176 -211 -506 -211q-307 0 -486.5 191.5t-179.5 519.5zM393 682q0 -223 103.5 -362.5t271.5 -139.5q180 0 281 154q94 145 94 342q0 227 -104.5 368.5 t-272.5 141.5q-166 0 -269.5 -140.5t-103.5 -363.5zM436 1518v235h236v-235h-236zM862 1518v235h236v-235h-236z" />
<glyph unicode="&#xd7;" d="M129 416l295 295l-295 295l125 124l295 -294l295 294l125 -124l-295 -295l295 -295l-125 -125l-295 293l-295 -293z" />
<glyph unicode="&#xd8;" horiz-adv-x="1533" d="M100 684q0 154 44 289t124 223q84 94 214 147.5t278 53.5q123 0 236.5 -34t183.5 -91l125 139l122 -108l-131 -148q139 -180 140 -475q0 -324 -180.5 -517.5t-483.5 -193.5q-260 0 -418 123l-118 -135l-127 104l129 148q-138 188 -138 475zM393 686q0 -109 41 -262 l561 661q-74 100 -231 101q-164 0 -267.5 -139.5t-103.5 -360.5zM532 276q90 -96 240 -96q164 0 267.5 140.5t103.5 365.5q0 123 -49 252z" />
<glyph unicode="&#xd9;" horiz-adv-x="1443" d="M164 541v825h276v-801q0 -113 14.5 -172t53.5 -108q78 -96 221 -97q168 0 242 138q25 47 33 96t8 153v791h268v-829q0 -291 -138 -429.5t-429 -138.5t-432 162q-117 131 -117 410zM406 1772h266l164 -267h-170z" />
<glyph unicode="&#xda;" horiz-adv-x="1443" d="M164 541v825h276v-801q0 -113 14.5 -172t53.5 -108q78 -96 221 -97q168 0 242 138q25 47 33 96t8 153v791h268v-829q0 -291 -138 -429.5t-429 -138.5t-432 162q-117 131 -117 410zM623 1505l163 267h267l-260 -267h-170z" />
<glyph unicode="&#xdb;" horiz-adv-x="1443" d="M164 541v825h276v-801q0 -113 14.5 -172t53.5 -108q78 -96 221 -97q168 0 242 138q25 47 33 96t8 153v791h268v-829q0 -291 -138 -429.5t-429 -138.5t-432 162q-117 131 -117 410zM399 1505l215 267h230l215 -267h-205l-125 156l-125 -156h-205z" />
<glyph unicode="&#xdc;" horiz-adv-x="1443" d="M164 541v825h276v-801q0 -113 14.5 -172t53.5 -108q78 -96 221 -97q168 0 242 138q25 47 33 96t8 153v791h268v-829q0 -291 -138 -429.5t-429 -138.5t-432 162q-117 131 -117 410zM397 1518v235h236v-235h-236zM823 1518v235h236v-235h-236z" />
<glyph unicode="&#xdd;" horiz-adv-x="1306" d="M18 1366h322l293 -508q18 -35 31 -65q6 18 30 61l299 512h295l-493 -813v-553h-277v547zM555 1505l164 267h266l-260 -267h-170z" />
<glyph unicode="&#xde;" horiz-adv-x="1122" d="M164 0v1366h276v-192h99q254 0 379 -89q166 -115 165 -331q0 -102 -43 -192.5t-120 -147.5q-121 -90 -355 -90q-49 0 -125 2v-326h-276zM436 539q137 0 182 8q82 12 129.5 66.5t47.5 136.5q0 164 -154 202q-47 12 -205 13v-426z" />
<glyph unicode="&#xdf;" horiz-adv-x="1196" d="M131 0v952q0 266 117 391q135 145 377 146q193 0 310.5 -103.5t117.5 -273.5q0 -127 -67.5 -213t-188.5 -113v-6q106 -20 174 -63q147 -98 147 -309q0 -193 -123 -308.5t-325 -115.5q-63 0 -168 20l4 207q68 -8 112 -8q106 0 170 64.5t64 172.5q0 154 -121 213 q-51 27 -182 27v194h37q94 0 148 57.5t54 155.5q0 96 -48 151.5t-130 55.5q-127 0 -182 -125q-35 -84 -35 -272v-897h-262z" />
<glyph unicode="&#xe0;" horiz-adv-x="1101" d="M76 301q0 328 508 328q51 0 147 -8v10q0 215 -225 215q-170 0 -313 -111l-9 226q166 72 351 71q266 0 372 -147q37 -53 50.5 -129t13.5 -240v-147q0 -160 10 -369h-233l-5 150q-100 -166 -323 -166q-156 0 -250 86t-94 231zM225 1464h271l163 -278h-155zM336 293 q0 -59 44 -95t113.5 -36t127 38t88.5 103q27 59 26 158q-49 4 -71 4q-328 0 -328 -172z" />
<glyph unicode="&#xe1;" horiz-adv-x="1101" d="M76 301q0 328 508 328q51 0 147 -8v10q0 215 -225 215q-170 0 -313 -111l-9 226q166 72 351 71q266 0 372 -147q37 -53 50.5 -129t13.5 -240v-147q0 -160 10 -369h-233l-5 150q-100 -166 -323 -166q-156 0 -250 86t-94 231zM336 293q0 -59 44 -95t113.5 -36t127 38 t88.5 103q27 59 26 158q-49 4 -71 4q-328 0 -328 -172zM465 1186l164 278h270l-278 -278h-156z" />
<glyph unicode="&#xe2;" horiz-adv-x="1101" d="M76 301q0 328 508 328q51 0 147 -8v10q0 215 -225 215q-170 0 -313 -111l-9 226q166 72 351 71q266 0 372 -147q37 -53 50.5 -129t13.5 -240v-147q0 -160 10 -369h-233l-5 150q-100 -166 -323 -166q-156 0 -250 86t-94 231zM252 1186l215 278h203l215 -278h-185l-131 170 l-133 -170h-184zM336 293q0 -59 44 -95t113.5 -36t127 38t88.5 103q27 59 26 158q-49 4 -71 4q-328 0 -328 -172z" />
<glyph unicode="&#xe3;" horiz-adv-x="1101" d="M76 301q0 328 508 328q51 0 147 -8v10q0 215 -225 215q-170 0 -313 -111l-9 226q166 72 351 71q266 0 372 -147q37 -53 50.5 -129t13.5 -240v-147q0 -160 10 -369h-233l-5 150q-100 -166 -323 -166q-156 0 -250 86t-94 231zM254 1210q12 86 37 127q55 102 160 103 q47 0 145 -41q92 -37 123 -37q27 0 50.5 24.5t29.5 59.5h100q-6 -96 -65.5 -161.5t-141.5 -65.5q-49 0 -129 36q-86 39 -129 39q-61 0 -82 -84h-98zM336 293q0 -59 44 -95t113.5 -36t127 38t88.5 103q27 59 26 158q-49 4 -71 4q-328 0 -328 -172z" />
<glyph unicode="&#xe4;" horiz-adv-x="1101" d="M76 301q0 328 508 328q51 0 147 -8v10q0 215 -225 215q-170 0 -313 -111l-9 226q166 72 351 71q266 0 372 -147q37 -53 50.5 -129t13.5 -240v-147q0 -160 10 -369h-233l-5 150q-100 -166 -323 -166q-156 0 -250 86t-94 231zM264 1210v230h223v-230h-223zM336 293 q0 -59 44 -95t113.5 -36t127 38t88.5 103q27 59 26 158q-49 4 -71 4q-328 0 -328 -172zM651 1210v230h221v-230h-221z" />
<glyph unicode="&#xe5;" horiz-adv-x="1101" d="M76 301q0 328 508 328q51 0 147 -8v10q0 215 -225 215q-170 0 -313 -111l-9 226q166 72 351 71q266 0 372 -147q37 -53 50.5 -129t13.5 -240v-147q0 -160 10 -369h-233l-5 150q-100 -166 -323 -166q-156 0 -250 86t-94 231zM336 293q0 -59 44 -95t113.5 -36t127 38 t88.5 103q27 59 26 158q-49 4 -71 4q-328 0 -328 -172zM362 1341q0 84 60.5 142.5t146.5 58.5q80 0 139.5 -60.5t59.5 -142.5t-60.5 -142t-142.5 -60q-84 0 -143.5 60t-59.5 144zM483 1339.5q0 -34.5 23.5 -59.5t58.5 -25t59.5 24t24.5 58.5t-24.5 59t-57.5 24.5 q-35 0 -59.5 -23.5t-24.5 -58z" />
<glyph unicode="&#xe6;" horiz-adv-x="1753" d="M74 301q0 317 501 317q59 0 170 -6q-6 225 -247 226q-82 0 -146.5 -19.5t-163.5 -75.5l-8 205q178 82 363 82q270 0 342 -164q106 164 339.5 164t342 -146.5t110.5 -461.5h-678q10 -109 66 -164q80 -80 223 -80q168 0 297 88l8 -215q-164 -68 -342 -67q-150 0 -256 50 t-147 140q-39 -76 -103 -117q-115 -74 -280 -73q-176 0 -283.5 87t-107.5 230zM346 295q0 -59 46 -99t114 -40q59 0 117.5 33.5t87.5 84.5q39 70 39 179q-35 0 -73 2t-50 2q-131 0 -206 -43t-75 -119zM997 604h414q-2 92 -37 150q-53 96 -162 96q-115 0 -174 -109 q-27 -49 -41 -137z" />
<glyph unicode="&#xe7;" horiz-adv-x="882" d="M76 512q0 229 131 360q150 150 385 150q90 0 219 -33l-20 -211q-88 33 -156 33q-129 0 -208 -83t-79 -220q0 -133 80 -215t211 -82q88 0 180 41l15 -221q-133 -39 -234 -39h-27l-69 -105q47 8 80 9q72 0 116.5 -35t44.5 -92q0 -82 -70.5 -135.5t-176.5 -53.5 q-92 0 -197 45l37 86q76 -39 139 -39q49 0 78 19.5t29 54.5q0 31 -26 49.5t-66 18.5q-29 0 -70 -11l-41 45l96 154q-401 92 -401 510z" />
<glyph unicode="&#xe8;" horiz-adv-x="1095" d="M74 510q0 244 133 387t356 143q213 0 335 -134t122 -367q0 -51 -6 -115h-682q10 -119 90 -187.5t209 -68.5q143 0 317 104l4 -227q-160 -72 -352 -72q-250 0 -388 141.5t-138 395.5zM242 1464h270l164 -278h-156zM328 606h442q-2 119 -58.5 184.5t-154.5 65.5 q-94 0 -155.5 -66.5t-73.5 -183.5z" />
<glyph unicode="&#xe9;" horiz-adv-x="1095" d="M74 510q0 244 133 387t356 143q213 0 335 -134t122 -367q0 -51 -6 -115h-682q10 -119 90 -187.5t209 -68.5q143 0 317 104l4 -227q-160 -72 -352 -72q-250 0 -388 141.5t-138 395.5zM328 606h442q-2 119 -58.5 184.5t-154.5 65.5q-94 0 -155.5 -66.5t-73.5 -183.5z M487 1186l164 278h271l-279 -278h-156z" />
<glyph unicode="&#xea;" horiz-adv-x="1095" d="M74 510q0 244 133 387t356 143q213 0 335 -134t122 -367q0 -51 -6 -115h-682q10 -119 90 -187.5t209 -68.5q143 0 317 104l4 -227q-160 -72 -352 -72q-250 0 -388 141.5t-138 395.5zM264 1186l215 278h203l215 -278h-184l-131 170l-133 -170h-185zM328 606h442 q-2 119 -58.5 184.5t-154.5 65.5q-94 0 -155.5 -66.5t-73.5 -183.5z" />
<glyph unicode="&#xeb;" horiz-adv-x="1095" d="M74 510q0 244 133 387t356 143q213 0 335 -134t122 -367q0 -51 -6 -115h-682q10 -119 90 -187.5t209 -68.5q143 0 317 104l4 -227q-160 -72 -352 -72q-250 0 -388 141.5t-138 395.5zM276 1210v230h224v-230h-224zM328 606h442q-2 119 -58.5 184.5t-154.5 65.5 q-94 0 -155.5 -66.5t-73.5 -183.5zM664 1210v230h221v-230h-221z" />
<glyph unicode="&#xec;" horiz-adv-x="528" d="M-57 1464h264l149 -278h-155zM133 0v1014h262v-1014h-262z" />
<glyph unicode="&#xed;" horiz-adv-x="528" d="M133 0v1014h262v-1014h-262zM186 1186l150 278h264l-258 -278h-156z" />
<glyph unicode="&#xee;" horiz-adv-x="528" d="M-25 1186l195 278h203l194 -278h-178l-117 170l-118 -170h-179zM133 0v1014h262v-1014h-262z" />
<glyph unicode="&#xef;" horiz-adv-x="528" d="M6 1210v230h205v-230h-205zM135 0v1014h262v-1014h-262zM319 1210v230h205v-230h-205z" />
<glyph unicode="&#xf0;" horiz-adv-x="1202" d="M76 512q0 227 138 375.5t349 148.5q78 0 127 -16t113 -68q-53 164 -195 287l-215 -131l-82 113l158 94q-61 25 -211 49l45 127q150 -14 332 -76l229 135l86 -108l-184 -109q164 -137 263 -355t99 -443q0 -274 -141 -416q-145 -145 -387 -146q-238 0 -381 147.5 t-143 391.5zM350 514q0 -137 60 -240q61 -104 194 -104t197 113q55 98 55 221q0 154 -70.5 249t-183.5 95q-111 0 -181.5 -94.5t-70.5 -239.5z" />
<glyph unicode="&#xf1;" horiz-adv-x="1198" d="M133 1014h246l8 -162q51 72 90 102q98 76 254 76q190 0 281 -131q63 -94 63 -328v-571h-262v510q0 160 -42 230.5t-138 70.5q-131 0 -193 -123q-35 -68 -34 -207v-481h-263v645q0 179 -10 369zM295 1210q12 86 37 127q55 102 160 103q47 0 145 -41q92 -37 123 -37 q27 0 50.5 24.5t29.5 59.5h100q-6 -96 -65.5 -161.5t-141.5 -65.5q-49 0 -129 36q-86 39 -129 39q-61 0 -82 -84h-98z" />
<glyph unicode="&#xf2;" horiz-adv-x="1202" d="M76 510q0 238 145.5 384t380.5 146q238 0 382 -148.5t144 -395.5q0 -233 -146 -378t-381.5 -145t-380 147.5t-144.5 389.5zM276 1464h271l164 -278h-156zM348 510q0 -154 69.5 -248t184.5 -94q113 0 183.5 93t70.5 239q0 156 -69.5 251t-184.5 95q-113 0 -183.5 -94.5 t-70.5 -241.5z" />
<glyph unicode="&#xf3;" horiz-adv-x="1202" d="M76 510q0 238 145.5 384t380.5 146q238 0 382 -148.5t144 -395.5q0 -233 -146 -378t-381.5 -145t-380 147.5t-144.5 389.5zM348 510q0 -154 69.5 -248t184.5 -94q113 0 183.5 93t70.5 239q0 156 -69.5 251t-184.5 95q-113 0 -183.5 -94.5t-70.5 -241.5zM514 1186l164 278 h270l-278 -278h-156z" />
<glyph unicode="&#xf4;" horiz-adv-x="1202" d="M76 510q0 238 145.5 384t380.5 146q238 0 382 -148.5t144 -395.5q0 -233 -146 -378t-381.5 -145t-380 147.5t-144.5 389.5zM299 1186l215 278h203l215 -278h-184l-132 170l-133 -170h-184zM348 510q0 -154 69.5 -248t184.5 -94q113 0 183.5 93t70.5 239q0 156 -69.5 251 t-184.5 95q-113 0 -183.5 -94.5t-70.5 -241.5z" />
<glyph unicode="&#xf5;" horiz-adv-x="1202" d="M76 510q0 238 145.5 384t380.5 146q238 0 382 -148.5t144 -395.5q0 -233 -146 -378t-381.5 -145t-380 147.5t-144.5 389.5zM301 1210q12 86 37 127q55 102 160 103q47 0 145 -41q92 -37 123 -37q27 0 50.5 24.5t29.5 59.5h100q-6 -96 -65.5 -161.5t-141.5 -65.5 q-49 0 -129 36q-86 39 -129 39q-61 0 -82 -84h-98zM348 510q0 -154 69.5 -248t184.5 -94q113 0 183.5 93t70.5 239q0 156 -69.5 251t-184.5 95q-113 0 -183.5 -94.5t-70.5 -241.5z" />
<glyph unicode="&#xf6;" horiz-adv-x="1202" d="M76 510q0 238 145.5 384t380.5 146q238 0 382 -148.5t144 -395.5q0 -233 -146 -378t-381.5 -145t-380 147.5t-144.5 389.5zM305 1210v230h223v-230h-223zM348 510q0 -154 69.5 -248t184.5 -94q113 0 183.5 93t70.5 239q0 156 -69.5 251t-184.5 95q-113 0 -183.5 -94.5 t-70.5 -241.5zM692 1210v230h221v-230h-221z" />
<glyph unicode="&#xf7;" d="M72 621v178h956v-178h-956zM434 250v219h230v-219h-230zM434 952v219h230v-219h-230z" />
<glyph unicode="&#xf8;" horiz-adv-x="1202" d="M72 43l112 121q-109 143 -108 346q0 240 145.5 385t382.5 145q168 0 309 -90l107 115l113 -96l-113 -119q109 -141 108 -348q0 -238 -144 -383.5t-382 -145.5q-180 0 -309 90l-109 -116zM348 510q0 -72 25 -156l379 437q-70 55 -148 55q-113 0 -184.5 -93t-71.5 -243z M453 225q72 -57 147 -57q117 0 186.5 93t69.5 249q0 68 -25 149z" />
<glyph unicode="&#xf9;" horiz-adv-x="1189" d="M125 442v572h262v-488q0 -164 29 -229q41 -94 151 -94q215 0 215 336v475h262v-619q0 -186 13 -395h-246l-8 156q-109 -172 -334 -172q-199 0 -285 143q-59 104 -59 315zM256 1464h270l164 -278h-155z" />
<glyph unicode="&#xfa;" horiz-adv-x="1189" d="M125 442v572h262v-488q0 -164 29 -229q41 -94 151 -94q215 0 215 336v475h262v-619q0 -186 13 -395h-246l-8 156q-109 -172 -334 -172q-199 0 -285 143q-59 104 -59 315zM502 1186l164 278h270l-279 -278h-155z" />
<glyph unicode="&#xfb;" horiz-adv-x="1189" d="M125 442v572h262v-488q0 -164 29 -229q41 -94 151 -94q215 0 215 336v475h262v-619q0 -186 13 -395h-246l-8 156q-109 -172 -334 -172q-199 0 -285 143q-59 104 -59 315zM274 1186l215 278h203l215 -278h-184l-131 170l-133 -170h-185z" />
<glyph unicode="&#xfc;" horiz-adv-x="1189" d="M125 442v572h262v-488q0 -164 29 -229q41 -94 151 -94q215 0 215 336v475h262v-619q0 -186 13 -395h-246l-8 156q-109 -172 -334 -172q-199 0 -285 143q-59 104 -59 315zM287 1210v230h223v-230h-223zM674 1210v230h221v-230h-221z" />
<glyph unicode="&#xfd;" horiz-adv-x="1093" d="M18 1014h291l209 -619l43 -135l49 168l197 586h266l-403 -1084q-74 -193 -148 -264q-100 -94 -268 -94q-72 0 -145 20l-23 7l18 198q59 -23 107 -22q78 0 123 37.5t84 136.5zM459 1186l164 278h270l-279 -278h-155z" />
<glyph unicode="&#xfe;" horiz-adv-x="1208" d="M143 -416v1891h265v-433q0 -90 -17 -188q125 178 328 178q190 0 303 -139t113 -377q0 -248 -113 -390t-309 -142q-215 0 -307 159q2 -61 2 -155v-404h-265zM408 500q0 -143 61 -226.5t168 -83.5q100 0 162.5 87.5t62.5 224.5q0 150 -57 231.5t-162 81.5q-109 0 -172 -85 t-63 -230z" />
<glyph unicode="&#xff;" horiz-adv-x="1093" d="M18 1014h291l209 -619l43 -135l49 168l197 586h266l-403 -1084q-74 -193 -148 -264q-100 -94 -268 -94q-72 0 -145 20l-23 7l18 198q59 -23 107 -22q78 0 123 37.5t84 136.5zM242 1210v230h223v-230h-223zM629 1210v230h221v-230h-221z" />
<glyph unicode="&#x152;" horiz-adv-x="1878" d="M100 688q0 207 79 360.5t227 235.5q164 88 448 88q82 0 172 -2q152 -4 342 -4h381v-223h-510v-330h467v-223h-467v-367h520v-223h-610l-285 -2q-201 -2 -331 38t-232 130q-201 178 -201 522zM385 686q0 -139 59.5 -248.5t165.5 -167.5q104 -57 273 -57q45 0 80 4v928 q-66 8 -136 8q-195 0 -318.5 -131t-123.5 -336z" />
<glyph unicode="&#x153;" horiz-adv-x="1871" d="M76 508q0 242 145.5 387t386.5 145q129 0 213 -38.5t152 -133.5q139 172 360 172q295 0 402 -237q61 -133 63 -379h-680q8 -121 83 -188.5t202 -67.5q152 0 299 100l8 -219q-176 -76 -338 -76q-270 0 -387 170q-70 -90 -159 -130t-218 -40q-244 0 -388 145.5t-144 389.5z M348 514q0 -156 68.5 -251t183.5 -95t185.5 92t70.5 242q0 154 -69.5 249t-182 95t-184.5 -93.5t-72 -238.5zM1118 606h410q-8 96 -33 144q-53 104 -166 104q-92 0 -148.5 -66.5t-62.5 -181.5z" />
<glyph unicode="&#x178;" horiz-adv-x="1306" d="M18 1366h322l293 -508q18 -35 31 -65q6 18 30 61l299 512h295l-493 -813v-553h-277v547zM322 1518v235h235v-235h-235zM748 1518v235h235v-235h-235z" />
<glyph unicode="&#x2c6;" horiz-adv-x="1024" d="M201 1186l215 278h202l216 -278h-185l-131 170l-133 -170h-184z" />
<glyph unicode="&#x2dc;" horiz-adv-x="1024" d="M190 1210q12 86 37 127q55 102 160 103q47 0 145 -41q92 -37 123 -37q27 0 50.5 24.5t29.5 59.5h101q-6 -96 -65.5 -161.5t-141.5 -65.5q-49 0 -129 36q-86 39 -129 39q-61 0 -82 -84h-99z" />
<glyph unicode="&#x2000;" horiz-adv-x="929" />
<glyph unicode="&#x2001;" horiz-adv-x="1861" />
<glyph unicode="&#x2002;" horiz-adv-x="929" />
<glyph unicode="&#x2003;" horiz-adv-x="1861" />
<glyph unicode="&#x2004;" horiz-adv-x="620" />
<glyph unicode="&#x2005;" horiz-adv-x="464" />
<glyph unicode="&#x2006;" horiz-adv-x="309" />
<glyph unicode="&#x2007;" horiz-adv-x="309" />
<glyph unicode="&#x2008;" horiz-adv-x="231" />
<glyph unicode="&#x2009;" horiz-adv-x="370" />
<glyph unicode="&#x200a;" horiz-adv-x="102" />
<glyph unicode="&#x2010;" horiz-adv-x="499" d="M0 403v220h500v-220h-500z" />
<glyph unicode="&#x2011;" horiz-adv-x="499" d="M0 403v220h500v-220h-500z" />
<glyph unicode="&#x2012;" horiz-adv-x="499" d="M0 403v220h500v-220h-500z" />
<glyph unicode="&#x2013;" d="M72 424v178h952v-178h-952z" />
<glyph unicode="&#x2014;" horiz-adv-x="1499" d="M0 424v178h1499v-178h-1499z" />
<glyph unicode="&#x2018;" horiz-adv-x="546" d="M68 985l174 490h227l-121 -490h-280z" />
<glyph unicode="&#x2019;" horiz-adv-x="546" d="M78 985l123 490h278l-172 -490h-229z" />
<glyph unicode="&#x201a;" horiz-adv-x="546" d="M78 -219l123 489h278l-172 -489h-229z" />
<glyph unicode="&#x201c;" horiz-adv-x="948" d="M68 985l174 490h227l-121 -490h-280zM469 985l174 490h229l-122 -490h-281z" />
<glyph unicode="&#x201d;" horiz-adv-x="948" d="M78 985l123 490h278l-172 -490h-229zM479 985l123 490h281l-174 -490h-230z" />
<glyph unicode="&#x201e;" horiz-adv-x="948" d="M68 -221l122 491h279l-172 -491h-229zM469 -221l123 491h280l-174 -491h-229z" />
<glyph unicode="&#x2022;" horiz-adv-x="1366" d="M401 692q0 119 83 202t204 83q115 0 198 -84t83 -201t-83 -199.5t-200 -82.5q-119 0 -202 82.5t-83 199.5z" />
<glyph unicode="&#x2026;" horiz-adv-x="1638" d="M133 0v268h279v-268h-279zM680 0v268h278v-268h-278zM1225 0v268h278v-268h-278z" />
<glyph unicode="&#x202f;" horiz-adv-x="370" />
<glyph unicode="&#x2039;" horiz-adv-x="653" d="M94 512l228 399h247l-211 -399l217 -406h-247z" />
<glyph unicode="&#x203a;" horiz-adv-x="653" d="M78 106l215 406l-211 399h248l229 -399l-233 -406h-248z" />
<glyph unicode="&#x205f;" horiz-adv-x="464" />
<glyph unicode="&#x20ac;" horiz-adv-x="1316" d="M72 514l45 141h100v29v39h-145l45 141h116q31 147 84 242q80 137 229.5 214t336.5 77q211 0 360 -90l-84 -271q-106 150 -276 150q-129 0 -219.5 -82t-133.5 -240h576l-45 -141h-549q-2 -20 -2 -41v-27h528l-45 -141h-465q37 -160 130.5 -247t226.5 -87q176 0 278 154 v-314q-129 -51 -284 -51q-262 0 -435.5 144.5t-214.5 400.5h-157z" />
<glyph unicode="&#x2122;" horiz-adv-x="1783" d="M2 1225v145h655v-145h-237v-637h-184v637h-234zM748 588v782h278l150 -405q31 -88 45 -148q12 53 34 115l158 438h283v-782h-185v461q0 98 7 141l-218 -602h-165l-181 485l-36 107q6 -92 6 -125v-467h-176z" />
<glyph unicode="&#xe000;" horiz-adv-x="1014" d="M0 1015h1015v-1015h-1015v1015z" />
<glyph unicode="&#xfb01;" horiz-adv-x="1142" d="M-68 819v195h203q4 150 15.5 212t44.5 115q88 139 307 140q61 0 137 -19l-16 -211q-39 10 -70 11q-104 0 -139 -88q-16 -37 -17 -160h230v-195h-230v-819h-262v819h-203zM743 1198v248h271v-248h-271zM748 0v1014h262v-1014h-262z" />
<glyph unicode="&#xfb02;" horiz-adv-x="1150" d="M-68 819v195h203q4 150 15.5 213t44.5 114q86 139 309 140q63 0 121 -19l-17 -211q-43 10 -65 11q-53 0 -92 -33t-48 -86q-6 -37 -6 -129h215v-195h-215v-819h-262v819h-203zM745 0v1475h263v-1475h-263z" />
<glyph unicode="&#xfb03;" horiz-adv-x="1755" d="M-68 819v195h203q4 150 15.5 212t44.5 115q88 139 307 140q61 0 137 -19l-16 -211q-39 10 -70 11q-104 0 -139 -88q-16 -37 -17 -160h351q4 150 15 212t44 115q88 139 307 140q61 0 137 -19l-16 -211q-39 10 -70 11q-104 0 -139 -88q-16 -37 -16 -160h229v-195h-229v-819 h-262v819h-351v-819h-262v819h-203zM1356 1198v248h270v-248h-270zM1360 0v1014h262v-1014h-262z" />
<glyph unicode="&#xfb04;" horiz-adv-x="1763" d="M-68 819v195h203q4 150 15.5 212t44.5 115q88 139 307 140q61 0 137 -19l-16 -211q-39 10 -70 11q-104 0 -139 -88q-16 -37 -17 -160h351q4 150 15 213t44 114q86 139 309 140q63 0 121 -19l-16 -211q-43 10 -66 11q-53 0 -92 -33t-47 -86q-6 -37 -6 -129h215v-195h-215 v-819h-262v819h-351v-819h-262v819h-203zM1360 0v1475h262v-1475h-262z" />
</font>
</defs>
</svg>
