<?xml version="1.0" standalone="no"?>
<!DOCTYPE svg PUBLIC "-//W3C//DTD SVG 1.1//EN" "http://www.w3.org/Graphics/SVG/1.1/DTD/svg11.dtd" >
<svg xmlns="http://www.w3.org/2000/svg">
<metadata>
This is a custom SVG webfont generated by Font Squirrel.
Copyright   : Typeface  FontSite Inc 19962008 All Rights Reserved wwwfontsitecom
Designer    : FontSitecom
Foundry URL : httpwwwfontsitecom
</metadata>
<defs>
<font id="webfontCWJpTiZr" horiz-adv-x="1097" >
<font-face units-per-em="2048" ascent="1552" descent="-496" />
<missing-glyph horiz-adv-x="512" />
<glyph unicode=" "  horiz-adv-x="512" />
<glyph unicode="&#x09;" horiz-adv-x="512" />
<glyph unicode="&#xa0;" horiz-adv-x="512" />
<glyph unicode="!" horiz-adv-x="768" d="M160 0l53 256h270l-53 -256h-270zM268 395l156 971h311l-250 -971h-217z" />
<glyph unicode="&#x22;" horiz-adv-x="833" d="M236 926l69 549h287l-164 -549h-192zM610 926l68 549h289l-164 -549h-193z" />
<glyph unicode="#" d="M37 377l39 184h184l57 273h-184l39 184h184l76 348h209l-74 -348h203l74 348h211l-76 -348h184l-39 -184h-184l-57 -273h184l-39 -184h-184l-80 -377h-211l80 377h-201l-80 -377h-211l80 377h-184zM471 561h201l59 273h-203z" />
<glyph unicode="$" d="M23 70l75 241q137 -113 348 -110l86 403q-143 72 -206 121q-127 100 -127 256q0 111 57 204t158 142q98 49 284 57l35 162h103l-35 -166q147 -2 319 -63l-71 -227q-121 82 -293 84l-76 -357q143 -74 207 -125q131 -100 131 -266q0 -111 -55.5 -210t-149.5 -153 q-113 -66 -309 -79l-35 -162h-102l34 166q-125 4 -204.5 21.5t-173.5 60.5zM467 1012q0 -45 24.5 -75t96.5 -75l65 312q-84 -6 -135 -51t-51 -111zM549 201q90 14 144.5 66t54.5 128q0 94 -123 162z" />
<glyph unicode="%" horiz-adv-x="1966" d="M227 981q0 170 88 301q102 145 295 145q141 0 217 -72.5t76 -207.5q0 -80 -28.5 -166t-75.5 -150q-92 -129 -285 -129q-139 0 -213 72t-74 207zM401 -84l1010 1534h156l-1010 -1534h-156zM416 981q0 -129 102 -129q96 0 148 127q35 92 34 172q0 127 -106 127 q-98 0 -148 -133q-30 -76 -30 -164zM1083 248q0 172 88 299q102 147 295 147q141 0 217 -72.5t76 -209.5q0 -174 -104 -316q-92 -129 -285 -129q-139 0 -213 72t-74 209zM1294 236q0 -119 92 -119q88 0 136 127q35 100 34 180q0 121 -94 121q-90 0 -137 -133 q-31 -82 -31 -176z" />
<glyph unicode="&#x26;" horiz-adv-x="1427" d="M123 369q0 199 166 317q80 55 221 96q-63 84 -88 141.5t-25 123.5q0 152 117 249t299 97q176 0 283.5 -88t107.5 -232q0 -170 -155 -278q-74 -49 -211 -93l202 -294q104 127 125 329h234q-29 -303 -232 -516l160 -221h-297l-47 68q-164 -92 -381 -93q-219 0 -349 107 t-130 287zM387 375q0 -90 67.5 -149.5t170.5 -59.5q141 0 239 82l-246 362q-96 -31 -147 -71q-84 -70 -84 -164zM653 1038q0 -43 13.5 -76.5t56.5 -99.5l46 16.5t38 12.5q170 68 170 182q0 57 -43 95t-107 38q-76 0 -125 -47t-49 -121z" />
<glyph unicode="'" horiz-adv-x="460" d="M236 926l69 549h287l-164 -549h-192z" />
<glyph unicode="(" horiz-adv-x="659" d="M100 395q0 190 47.5 354t157.5 353q80 137 266 371h275q-182 -211 -309 -453q-176 -338 -177 -709q0 -322 103 -727h-221q-142 512 -142 811z" />
<glyph unicode=")" horiz-adv-x="878" d="M76 -416q184 213 311 455q174 334 174 706q0 319 -102 728h221q141 -522 141 -811q0 -274 -103.5 -511t-367.5 -567h-274z" />
<glyph unicode="*" d="M295 1176l104 182l234 -164l29 279l204 -46l-86 -262l277 47l18 -202l-274 -4l129 -232l-189 -84l-86 254l-204 -209l-138 154l236 172z" />
<glyph unicode="+" d="M127 621v178h383v375h188v-375h385v-178h-385v-375h-188v375h-383z" />
<glyph unicode="," horiz-adv-x="550" d="M-66 -219l203 489h297l-264 -489h-236z" />
<glyph unicode="-" horiz-adv-x="495" d="M-10 406l45 212h495l-45 -212h-495z" />
<glyph unicode="." horiz-adv-x="550" d="M45 0l57 270h279l-57 -270h-279z" />
<glyph unicode="/" horiz-adv-x="985" d="M-176 -416l1036 1889h227l-1034 -1889h-229z" />
<glyph unicode="0" d="M100 438q0 164 41 344.5t105 298.5q166 309 461 310q391 0 391 -490q0 -147 -41 -321t-103 -293q-84 -164 -194.5 -238t-267.5 -74q-182 0 -287 124t-105 339zM360 387q0 -96 41 -151.5t113 -55.5q82 0 140.5 79t107.5 257q76 274 76 459q0 100 -38 156.5t-106 56.5 q-158 0 -250 -316q-84 -286 -84 -485z" />
<glyph unicode="1" d="M250 1067l463 299h243l-290 -1366h-279l172 801q41 188 74 278q-70 -76 -158 -131l-106 -67z" />
<glyph unicode="2" d="M-16 0l49 227q248 193 413 338q197 168 260.5 251t63.5 167t-53 134t-144 50q-125 0 -331 -100l-11 233q223 90 390 91q199 0 318.5 -102.5t119.5 -272.5q0 -117 -61.5 -228.5t-198.5 -244.5q-197 -190 -418 -336q43 6 84 6h475l-45 -213h-911z" />
<glyph unicode="3" d="M10 53l60 213q166 -80 317 -80q143 0 232.5 63.5t89.5 166.5q0 195 -316 194q-43 0 -82 -4l39 215h78q166 0 260 41q55 23 89 69t34 99q0 72 -55.5 115t-145.5 43q-141 0 -331 -82l30 223q178 61 359 62q193 0 306 -90.5t113 -241.5q0 -90 -44 -167t-123 -124 q-61 -39 -170 -57q125 -37 183 -109t58 -190q0 -193 -164 -320q-156 -117 -401 -117q-260 0 -416 78z" />
<glyph unicode="4" d="M29 281l30 229l682 856h349l-187 -887h184l-43 -198h-184l-59 -281h-266l59 281h-565zM283 467q41 12 108 12h246l80 373q16 82 33 139q12 41 29.5 106.5t23.5 84.5q-80 -154 -237.5 -370t-282.5 -345z" />
<glyph unicode="5" d="M72 43l47 221q145 -68 301 -67q145 0 234 70.5t89 185.5q0 100 -74.5 158.5t-205.5 58.5q-115 0 -256 -47l170 743h797l-46 -211l-538 -4l-64 -279q57 4 64 5q193 0 317.5 -116t124.5 -296q0 -201 -139 -344q-143 -145 -420 -146q-174 0 -401 68z" />
<glyph unicode="6" d="M117 420q0 164 41 340t108 299q96 174 230.5 253t339.5 79q182 0 319 -60l-65 -194q-117 51 -236 51q-291 0 -414 -377q100 76 234 76q170 0 269 -103.5t99 -277.5q0 -225 -129 -383q-123 -147 -366 -148q-207 0 -318.5 116t-111.5 329zM373 373q0 -90 44 -142.5 t122 -52.5q94 0 160.5 90t66.5 219q0 205 -166 205q-100 0 -163.5 -89t-63.5 -230z" />
<glyph unicode="7" d="M84 0l670 1036q59 90 98 125q-39 -8 -117 -8h-532l45 213h917l-47 -229l-704 -1137h-330z" />
<glyph unicode="8" d="M70 352q0 295 336 385q-166 94 -166 271q0 84 37.5 160.5t103.5 127.5q125 94 340 95q197 0 314.5 -90.5t117.5 -239.5q0 -170 -149 -277q-55 -39 -150 -65q190 -92 190 -301q0 -199 -149 -326q-135 -117 -365 -117q-213 0 -336.5 101.5t-123.5 275.5zM344 356 q0 -82 54.5 -134t140.5 -52q96 0 161.5 65.5t65.5 161.5q0 133 -156 226q-266 -89 -266 -267zM500 1004q0 -109 155 -195l54 16q84 27 134 84.5t50 122.5q0 68 -51 112t-131 44q-90 0 -150.5 -53t-60.5 -131z" />
<glyph unicode="9" d="M55 31l68 194q104 -47 223 -47q195 0 307 146q55 72 111 239q-113 -82 -240 -82q-170 0 -268 101.5t-98 277.5q0 238 139 393q127 137 348 138q207 0 319.5 -117t112.5 -334q0 -180 -49 -375.5t-123 -312.5q-92 -145 -212 -211t-296 -66q-209 1 -342 56zM432 870 q0 -90 46 -144t122 -54q94 0 159.5 89t65.5 220q0 100 -44 153.5t-124 53.5q-94 0 -159.5 -92.5t-65.5 -225.5z" />
<glyph unicode=":" horiz-adv-x="550" d="M45 0l57 270h279l-57 -270h-279zM203 741l57 271h279l-58 -271h-278z" />
<glyph unicode=";" horiz-adv-x="550" d="M-66 -219l203 489h297l-264 -489h-236zM221 741l58 271h278l-57 -271h-279z" />
<glyph unicode="&#x3c;" horiz-adv-x="1024" d="M119 588v219l887 450v-260l-609 -301l609 -303v-258z" />
<glyph unicode="=" d="M127 463v178h956v-178h-956zM127 778v178h956v-178h-956z" />
<glyph unicode="&#x3e;" horiz-adv-x="1024" d="M119 133v260l610 303l-610 303v258l887 -452v-219z" />
<glyph unicode="?" horiz-adv-x="987" d="M227 0l56 256h274l-55 -256h-275zM238 1130l6 224q125 33 278 32q223 0 353.5 -97t130.5 -267q0 -139 -115 -256q-16 -18 -180 -152q-80 -66 -111 -111.5t-41 -111.5h-242q16 139 63.5 211t209.5 209q133 113 133 207q0 72 -68.5 117t-179.5 45q-106 -1 -237 -50z" />
<glyph unicode="@" horiz-adv-x="1574" d="M158 672q0 303 210 514t515 211q281 0 466 -173t185 -436q0 -188 -102.5 -332.5t-235.5 -144.5q-59 0 -102 32t-58 83q-41 -61 -109.5 -96t-146.5 -35q-125 0 -208 92t-83 231q0 166 108 290t253 124q141 0 201 -102l16 80h178l-76 -394q-14 -76 -14 -92q0 -66 47 -65 q63 0 118.5 104.5t55.5 224.5q0 197 -135 322t-348 125q-238 0 -399.5 -164t-161.5 -403q0 -231 153 -392q143 -145 408 -145q195 0 377 64l41 -162q-186 -63 -422 -64q-317 0 -514 185q-102 96 -159.5 233.5t-57.5 284.5zM694 625q0 -66 38 -107t97 -41q70 0 123.5 65.5 t53.5 149.5q0 66 -36 107t-96 41q-72 0 -126 -64.5t-54 -150.5z" />
<glyph unicode="A" horiz-adv-x="1425" d="M-76 0l834 1366h305l254 -1366h-279l-51 317h-573l-183 -317h-307zM535 532h417l-61 379q-20 123 -23 213h-10q-33 -88 -88 -180z" />
<glyph unicode="B" horiz-adv-x="1204" d="M51 0l291 1366h350q223 0 324 -63q66 -43 106.5 -118t40.5 -155q0 -84 -45 -158.5t-123 -119.5q-43 -25 -131 -43q72 -16 107 -39q123 -74 123 -248q0 -106 -56.5 -197.5t-158.5 -146.5q-141 -78 -426 -78h-402zM356 201h74q117 0 174.5 10t102.5 39q115 68 114 196 q0 104 -96 146q-49 20 -178 20h-103zM483 799h82q162 0 249 55t87 156q0 86 -78 120q-49 20 -151 21h-115z" />
<glyph unicode="C" horiz-adv-x="1206" d="M147 598q0 152 58.5 299t159.5 254q219 229 585 229q193 0 393 -69l-67 -221q-123 72 -283 71q-248 0 -399 -162q-72 -76 -113 -178t-41 -205q0 -174 114 -288.5t288 -114.5q141 0 276 61l-39 -247q-178 -41 -315 -41q-279 0 -448 168t-169 444z" />
<glyph unicode="D" horiz-adv-x="1427" d="M68 0l290 1366h299q213 0 332 -28.5t211 -102.5q186 -152 186 -451q0 -201 -83.5 -378t-227.5 -277q-104 -72 -242.5 -100.5t-383.5 -28.5h-381zM391 207q221 2 316.5 20.5t171.5 71.5q98 72 158.5 204t60.5 277q0 246 -191 334q-88 43 -248 43h-67z" />
<glyph unicode="E" horiz-adv-x="1095" d="M66 0l290 1366h811l-47 -215h-532l-72 -340h483l-45 -215h-483l-82 -381h545l-45 -215h-823z" />
<glyph unicode="F" horiz-adv-x="1054" d="M49 0l291 1366h762l-45 -215h-486l-73 -346h463l-46 -215h-462l-125 -590h-279z" />
<glyph unicode="G" horiz-adv-x="1427" d="M152 592q0 168 60 322.5t169 261.5q211 207 596 206q240 0 461 -71l-68 -236q-195 98 -377 99q-270 0 -415 -177q-131 -164 -132 -393q0 -184 108 -297.5t284 -113.5q66 0 133 24l76 356h-295l45 215h559l-160 -745q-156 -59 -397 -59q-299 0 -471 163q-176 166 -176 445 z" />
<glyph unicode="H" horiz-adv-x="1425" d="M66 0l290 1366h279l-117 -549h547l115 549h278l-289 -1366h-278l125 590h-547l-125 -590h-278z" />
<glyph unicode="I" horiz-adv-x="546" d="M35 0l291 1366h284l-291 -1366h-284z" />
<glyph unicode="J" horiz-adv-x="765" d="M-68 14l60 232q63 -20 127 -21q113 0 168 82q31 47 55 162l190 897h279l-197 -920q-39 -180 -59 -227q-102 -233 -405 -233q-107 -1 -218 28z" />
<glyph unicode="K" horiz-adv-x="1320" d="M70 0l290 1366h279l-88 -416q-20 -104 -43 -153q70 90 178 194l391 375h379l-692 -625l436 -741h-323l-248 446q-119 211 -135 275q-4 -47 -27 -160l-119 -561h-278z" />
<glyph unicode="L" horiz-adv-x="985" d="M49 0l291 1366h278l-241 -1139h536l-49 -227h-815z" />
<glyph unicode="M" horiz-adv-x="1865" d="M63 0l291 1366h449l67 -625q27 -248 27 -344q0 -39 -2 -69h10q33 127 154 342l389 696h459l-291 -1366h-279l168 788q27 125 78 299l6 23q6 20 10 37h-18q-29 -63 -65 -129l-564 -1018h-245l-93 748q-20 164 -30 399h-15l-243 -1147h-263z" />
<glyph unicode="N" horiz-adv-x="1429" d="M55 0l291 1366h348l234 -809l39 -139l8 -41l14 -72h10q18 135 33 197l182 864h263l-289 -1366h-359l-229 807q-51 182 -55 252h-10q-4 -53 -27 -162l-191 -897h-262z" />
<glyph unicode="O" horiz-adv-x="1533" d="M139 551q0 172 64.5 336t177.5 282q213 223 547 224q270 0 419.5 -154t149.5 -430q0 -162 -63.5 -327t-171.5 -283q-203 -225 -555 -226q-291 0 -441 185q-127 157 -127 393zM426 535q0 -160 80 -256.5t213 -96.5q188 0 321 162q78 96 125 226t47 251q0 166 -79.5 264.5 t-217.5 98.5q-92 0 -179 -45t-148 -123q-74 -94 -118 -224t-44 -257z" />
<glyph unicode="P" horiz-adv-x="1095" d="M41 0l291 1366h309q246 0 367 -74q162 -96 161 -295q0 -102 -44 -196t-121 -160q-150 -123 -418 -123q-27 0 -150 4l-110 -522h-285zM475 729q47 -6 88 -6q139 0 226.5 71.5t87.5 188.5q0 127 -125 160q-47 12 -187 12z" />
<glyph unicode="Q" horiz-adv-x="1536" d="M141 555q0 164 64.5 324.5t177.5 283.5q209 229 549 230q279 0 430 -170q139 -162 139 -398q0 -190 -69.5 -365t-192.5 -290q-96 -92 -233 -154l284 -280h-329l-199 231h-53q-231 0 -373 117q-92 76 -143.5 201t-51.5 270zM428 528q0 -160 81 -257t214 -97 q195 0 343 194.5t148 448.5q0 172 -78.5 269.5t-217.5 97.5q-199 0 -328 -170q-76 -96 -119 -227.5t-43 -258.5z" />
<glyph unicode="R" horiz-adv-x="1208" d="M53 0l291 1366h434q432 0 432 -319q0 -213 -170 -314q-88 -53 -233 -59q74 -12 104.5 -47t55.5 -144l112 -483h-284l-90 426q-23 106 -60 126.5t-192 22.5l-123 -575h-277zM496 778q31 -2 77 -2q168 0 252 55q90 59 90 175q0 86 -53 119.5t-188 33.5q-55 0 -99 -2z" />
<glyph unicode="S" horiz-adv-x="1095" d="M29 59l71 232q178 -96 332 -96q119 0 190.5 59t71.5 158q0 59 -38 100t-160 111q-123 72 -166 112q-104 92 -105 236q0 186 142 299q135 111 376 110q176 0 355 -61l-70 -221q-150 74 -289 73q-106 0 -170.5 -46t-64.5 -119q0 -66 49 -105q41 -31 127 -78 q143 -80 205 -143q102 -106 102 -256q0 -88 -40 -175t-105 -145q-137 -119 -393 -118q-205 -1 -420 73z" />
<glyph unicode="T" horiz-adv-x="1099" d="M164 1139l49 227h1067l-49 -227h-389l-242 -1139h-285l242 1139h-393z" />
<glyph unicode="U" horiz-adv-x="1437" d="M164 387q0 111 24 219l162 760h279l-158 -737q-25 -123 -25 -205q0 -109 64.5 -173.5t171.5 -64.5q154 0 250 123q66 86 108 289l164 768h279l-172 -809q-63 -293 -213 -430q-162 -150 -414 -150q-244 0 -383 109q-137 113 -137 301z" />
<glyph unicode="V" horiz-adv-x="1312" d="M215 1366h279l106 -877q6 -51 10 -118l4 -66q0 -4 4 -45l17 41l24 57q10 29 54 109l489 899h291l-764 -1366h-328z" />
<glyph unicode="W" horiz-adv-x="1976" d="M217 1366h275l32 -770l2 -84q0 -17 1 -34q0 -103 -11 -204h16l50 142l38 92l21 54q6 15 9 24.5t7 17.5l338 762h375l10 -727v-16v-74q0 -11 1 -24q0 -98 -15 -251h18q59 176 113 293l369 799h288l-661 -1366h-342l-16 877l-2 86q0 6 -1 14q0 49 11 160h-15 q-35 -119 -55 -170q-4 -8 -30.5 -73t-41.5 -95l-358 -799h-342z" />
<glyph unicode="X" horiz-adv-x="1316" d="M-74 0l631 739l-303 627h293l127 -287q47 -102 69 -192h9q37 63 122 168l261 311h323l-565 -655l315 -711h-297l-161 406q-37 90 -48 145h-10q-78 -123 -139 -197l-289 -354h-338z" />
<glyph unicode="Y" horiz-adv-x="1312" d="M217 1366h289l145 -373q31 -80 58 -176q0 -4 8 -29q27 49 90 132l352 446h320l-658 -803l-121 -563h-278l121 563z" />
<glyph unicode="Z" horiz-adv-x="1095" d="M-27 0l43 203l721 821q66 76 109 111q8 4 28 24q-63 -8 -137 -8h-495l45 215h940l-45 -215l-725 -821q-68 -76 -138 -127q86 12 197 12h467l-45 -215h-965z" />
<glyph unicode="[" horiz-adv-x="661" d="M-16 -416l409 1889h443l-37 -177h-207l-332 -1536h207l-39 -176h-444z" />
<glyph unicode="\" horiz-adv-x="888" d="M289 1473h215l235 -1889h-219z" />
<glyph unicode="]" horiz-adv-x="770" d="M-23 -416l37 176h205l334 1538h-207l37 175h444l-407 -1889h-443z" />
<glyph unicode="^" horiz-adv-x="1024" d="M59 688l330 686h344l330 -686h-275l-227 477l-227 -477h-275z" />
<glyph unicode="_" horiz-adv-x="1024" d="M49 -96h1024v-236h-1024v236z" />
<glyph unicode="`" horiz-adv-x="1024" d="M397 1464h250l156 -280h-150z" />
<glyph unicode="a" d="M41 260q0 117 68.5 202t193.5 126q123 39 309 39h14q9 0 33.5 -1t67.5 -1h35q4 57 4 59q0 82 -55.5 126t-157.5 44q-152 0 -320 -82l39 213q162 49 351 49q178 0 281.5 -85t103.5 -232q0 -68 -29 -207l-59 -297q-23 -117 -37 -213h-217l18 111q0 4 1 11t3 11l8 21 q0 6 2 14q-121 -184 -348 -184q-139 0 -224 75.5t-85 200.5zM301 281q0 -53 38 -86t97 -33q113 0 191 83t102 226h-84q-137 0 -219 -31q-57 -20 -91 -64t-34 -95z" />
<glyph unicode="b" horiz-adv-x="1208" d="M41 0l317 1473h260l-94 -453q-20 -90 -39 -139l9 -4q109 150 292 149q168 0 266.5 -113.5t98.5 -304.5q0 -244 -135 -430q-139 -193 -391 -192q-242 0 -291 180h-6q0 -4 -2 -15l-4 -24l-35 -127h-246zM403 401q0 -100 49.5 -156.5t137.5 -56.5q152 0 233 162 q55 106 56 234q0 111 -49.5 175t-135.5 64q-121 0 -206 -124t-85 -298z" />
<glyph unicode="c" horiz-adv-x="876" d="M82 422q0 119 46 236.5t124 199.5q150 160 424 160q139 0 264 -39l-63 -211q-88 47 -189 47q-147 0 -233 -100q-102 -125 -103 -281q0 -106 64.5 -168.5t173.5 -62.5q111 0 203 49l-25 -215q-135 -43 -250 -43q-199 0 -317.5 116.5t-118.5 311.5z" />
<glyph unicode="d" horiz-adv-x="1202" d="M86 401q0 254 145 445q135 180 367 180q145 0 231 -76q45 -39 72 -123q4 29 4 35q4 41 4 45q0 2 5.5 30t17.5 83l96 453h264l-266 -1246q-18 -86 -39 -227h-248l27 137q2 14 8 31l-6 2q-109 -184 -322 -184q-164 0 -262 113.5t-98 301.5zM358 403q0 -96 46.5 -155.5 t119.5 -59.5q123 0 214 120t91 278q0 111 -48 170t-138 59q-141 0 -221 -151q-64 -118 -64 -261z" />
<glyph unicode="e" horiz-adv-x="1095" d="M82 399q0 244 143 437q154 205 434 204q186 0 290 -102t104 -289q0 -121 -25 -221h-698q-4 -33 -4 -43q0 -100 74.5 -157.5t205.5 -57.5q156 0 312 78l-31 -211q-168 -59 -338 -60q-213 0 -340 114.5t-127 307.5zM360 606h455q6 59 6 76q0 82 -50 131t-134 49 q-96 0 -170 -67.5t-107 -188.5z" />
<glyph unicode="f" horiz-adv-x="765" d="M111 819l41 193h206q49 225 103 309q106 172 330 172q78 0 178 -20l-64 -195q-39 12 -76 12q-123 0 -172 -119q-16 -43 -43 -159h242l-41 -193h-237l-170 -819h-265l174 819h-206z" />
<glyph unicode="g" horiz-adv-x="1204" d="M18 -358l68 217q162 -84 315 -84q203 0 287 143q39 61 82 221q0 8 12 41l11 29l-9 4q-98 -207 -338 -207q-162 0 -260 111.5t-98 298.5q0 246 135 432q137 184 375 184q252 0 301 -194l4 -17l4 25l2 14q0 2 4 23l27 129h256q-18 -74 -20 -80l-11 -51l-12 -54l-156 -731 q-57 -279 -196 -399q-154 -131 -410 -131q-195 0 -373 76zM362 428q0 -102 45.5 -160.5t124.5 -58.5q123 0 211 110.5t88 266.5q0 233 -188 233q-121 0 -201 -111.5t-80 -279.5z" />
<glyph unicode="h" horiz-adv-x="1204" d="M47 0l313 1473h263l-109 -517q-12 -49 -29 -98q96 168 312 168q143 0 230 -87t87 -228q0 -113 -39 -289l-90 -422h-264l92 428q39 182 39 236q0 68 -40 109.5t-103 41.5q-68 0 -131.5 -41t-98.5 -106q-49 -90 -82 -256l-86 -412h-264z" />
<glyph unicode="i" horiz-adv-x="548" d="M49 0l211 1012h264l-211 -1012h-264zM293 1198l53 248h275l-54 -248h-274z" />
<glyph unicode="j" horiz-adv-x="548" d="M-201 -406l62 189q39 -10 59 -10q66 0 94 73q12 27 41 166l211 1000h262l-221 -1065q-43 -217 -119 -295q-82 -82 -211 -82q-76 -1 -178 24zM299 1198l53 248h275l-54 -248h-274z" />
<glyph unicode="k" d="M51 0l314 1473h262l-176 -834l-7 -25q0 -8 -6 -30q33 63 115 145l283 283h344l-498 -467l309 -545h-297l-192 371q-61 119 -74 178q-4 -33 -8 -55l-105 -494h-264z" />
<glyph unicode="l" horiz-adv-x="544" d="M45 0l313 1473h263l-312 -1473h-264z" />
<glyph unicode="m" horiz-adv-x="1753" d="M45 0l148 721q41 197 53 291h248l-13 -99l-4 -20l-4 -16l-4 -13q102 162 301 162q131 0 209 -74q51 -47 53 -137q43 76 86 115q109 98 260 98q133 0 214 -82t81 -215q0 -84 -43 -282l-96 -449h-262l96 455l25 127q16 72 16 116q0 53 -33 85t-90 32q-100 0 -167.5 -96 t-110.5 -299l-88 -420h-263l105 500q29 133 29 192q0 57 -33 90t-90 33q-100 0 -183 -115q-47 -63 -82 -237l-96 -463h-262z" />
<glyph unicode="n" horiz-adv-x="1206" d="M45 0l154 725q8 37 16 82t10 55q18 100 25 150h252l-17 -90l-6 -27q-4 -20 -10 -41l6 -2q43 74 90 104q96 70 228 70q145 0 231 -87t86 -232q0 -104 -37 -279l-92 -428h-262l92 438q37 176 37 228q0 68 -39 108.5t-102 40.5q-135 0 -220 -133q-47 -76 -88 -260l-90 -422 h-264z" />
<glyph unicode="o" horiz-adv-x="1204" d="M80 422q0 113 43 229.5t115 202.5q158 186 442 186q223 0 345 -119.5t122 -338.5q0 -262 -171 -436.5t-427 -174.5q-221 0 -350 135q-119 130 -119 316zM352 406q0 -109 57.5 -175.5t149.5 -66.5q131 0 225.5 126t94.5 302q0 121 -55.5 188.5t-153.5 67.5 q-133 0 -215 -119q-103 -145 -103 -323z" />
<glyph unicode="p" horiz-adv-x="1208" d="M-47 -416l244 1139q35 164 47 289h254l-45 -172h8q59 96 135 140t182 44q168 0 268.5 -116.5t100.5 -311.5q0 -258 -147.5 -434t-364.5 -176q-221 0 -295 186q-4 -8 -4 -10t-4 -39l-115 -539h-264zM399 422q0 -106 50.5 -170t134.5 -64q121 0 205.5 117t84.5 281 q0 111 -50 173t-140 62q-119 0 -202 -116.5t-83 -282.5z" />
<glyph unicode="q" horiz-adv-x="1206" d="M90 416q0 258 152 442q137 168 360 168q250 0 299 -190l8 2q4 29 9 53l26 121h256q-16 -53 -41 -162l-270 -1266h-262l71 346q16 78 43 160q6 12 13 43q-84 -88 -143.5 -117.5t-155.5 -29.5q-168 0 -266.5 115.5t-98.5 314.5zM360 408q0 -100 47.5 -160t127.5 -60 q131 0 213 129q84 127 83 269q0 109 -48 169t-136 60q-119 0 -203 -119.5t-84 -287.5z" />
<glyph unicode="r" horiz-adv-x="768" d="M45 0l150 698q35 164 53 314h254l-19 -111q-2 -23 -6 -33l-6 -26l-2 -11q-2 -12 -4 -20q63 113 139 162t182 49q41 0 82 -10l-51 -244q-49 16 -92 16q-131 0 -210 -90t-120 -286l-86 -408h-264z" />
<glyph unicode="s" horiz-adv-x="876" d="M0 47l61 209q133 -84 263 -84q80 0 131 35t51 90q0 49 -49 84q-23 16 -129 78q-96 55 -138.5 114.5t-42.5 139.5q0 147 118 233t319 86q154 0 293 -47l-60 -192q-109 47 -205 47q-92 0 -145 -31t-53 -84q0 -39 25.5 -60.5t133.5 -78.5q106 -55 152.5 -117.5t46.5 -153.5 q0 -154 -122 -244.5t-326 -90.5q-193 -1 -324 67z" />
<glyph unicode="t" horiz-adv-x="765" d="M104 819l41 193h195l45 209l274 86l-61 -295h244l-41 -193h-244l-80 -373q-25 -119 -24 -149q0 -109 102 -109q47 0 127 27l-31 -201q-86 -29 -172 -28q-135 0 -209.5 72.5t-74.5 201.5q0 61 20 162l84 397h-195z" />
<glyph unicode="u" horiz-adv-x="1204" d="M127 299q0 129 127 713h264l-104 -496q-25 -123 -25 -170q0 -66 41 -109.5t102 -43.5q57 0 116 39.5t100 105.5q41 68 81 258l89 416h262l-162 -776q-37 -180 -41 -236h-248l21 109l4 20l4 14q2 2 2 13q-119 -174 -309 -174q-150 0 -237 86t-87 231z" />
<glyph unicode="v" horiz-adv-x="1099" d="M141 1012h269l79 -547q16 -106 17 -223h6q59 141 139 286l267 484h282l-596 -1012h-291z" />
<glyph unicode="w" horiz-adv-x="1755" d="M137 1012h260l64 -592q0 -4 3 -31t3 -39l2 -69q0 -2 4 -39q23 45 49 108q6 12 15.5 35t11.5 25l31 61l266 541h297l47 -561q8 -119 8 -162v-47h8q29 90 113 250l272 520h273l-561 -1012h-297l-52 561q-8 115 -8 129q0 23 6 96h-10q-39 -131 -111 -270l-266 -516h-297z " />
<glyph unicode="x" horiz-adv-x="1095" d="M-80 0l467 535l-221 477h280l86 -215q31 -78 46 -135q33 51 102 137l180 213h311l-426 -482l246 -530h-286l-123 287q-16 39 -25 84l-8 24l-12 -20l-15 -25q-10 -18 -45 -61l-237 -289h-320z" />
<glyph unicode="y" d="M-88 -401l59 196q70 -20 121 -20q113 0 189 121l36 59l-178 1057h269l81 -578q12 -78 15 -178h8q23 61 84 172l315 584h289l-690 -1180q-86 -145 -174 -202.5t-227 -57.5q-84 0 -197 27z" />
<glyph unicode="z" horiz-adv-x="985" d="M-23 0l39 182l508 514q78 78 162 125q-88 -8 -147 -8h-365l41 199h803l-41 -191l-500 -504q-90 -90 -162 -135q61 10 152 11h401l-41 -193h-850z" />
<glyph unicode="{" horiz-adv-x="749" d="M31 -225q0 49 12 104l80 373q10 51 10 88q0 80 -84 98l39 180q66 16 99.5 55.5t52.5 131.5l79 373q39 182 140.5 241.5t357.5 53.5l-39 -183q-16 2 -37 2q-94 0 -129 -24q-27 -18 -39 -49t-32 -123l-66 -312q-23 -106 -60.5 -159.5t-119.5 -96.5q47 -35 64.5 -68.5 t17.5 -84.5q0 -39 -12 -105l-66 -311q-18 -86 -18 -119q0 -47 31.5 -60t142.5 -13l-39 -183q-193 2 -240 13q-145 28 -145 178z" />
<glyph unicode="|" horiz-adv-x="1024" d="M430 -342v1708h262v-1708h-262z" />
<glyph unicode="}" horiz-adv-x="749" d="M-35 -416l39 183q16 -2 37 -3q94 0 129 25q27 18 39 49t33 123l65 311q23 106 61 159.5t119 96.5q-47 35 -64 69t-17 85q0 39 12 104l65 312q18 86 19 119q0 47 -32 60t-142 13l39 183q193 -2 239 -13q145 -29 146 -178q0 -49 -13 -104l-80 -373q-10 -51 -10 -88 q0 -80 84 -99l-39 -180q-66 -16 -99.5 -55t-51.5 -131l-80 -373q-39 -182 -140.5 -241.5t-357.5 -53.5z" />
<glyph unicode="~" horiz-adv-x="1366" d="M233 1243l17 35q39 90 63.5 127t65.5 70q66 53 166 53q72 0 211 -53q135 -49 180 -50q47 0 77.5 22.5t67.5 82.5l150 -86q-47 -96 -78 -140t-74 -75q-82 -57 -174 -58q-57 0 -209 56q-133 47 -168 47q-51 0 -80.5 -25.5t-68.5 -99.5z" />
<glyph unicode="&#xa1;" horiz-adv-x="765" d="M76 -354l250 970h217l-156 -970h-311zM326 756l55 256h270l-55 -256h-270z" />
<glyph unicode="&#xa2;" d="M96 600q0 162 75 304.5t198 213.5q115 70 288 80l35 170h103l-35 -170q121 -6 196 -43l-65 -209q-76 47 -174 49l-131 -614q10 -2 24 -2q109 0 199 51l-27 -215q-104 -43 -211 -43q-16 0 -30 2l-37 -174h-103l39 180q-117 25 -180 70q-164 114 -164 350zM369 614 q0 -137 118 -213l123 584q-90 -31 -139 -92q-102 -123 -102 -279z" />
<glyph unicode="&#xa3;" d="M6 0l43 199h174l96 452h-149l31 146h149q39 188 66.5 267t75.5 140q141 186 423 187q158 0 291 -48l-59 -221q-90 51 -197 52q-141 0 -219 -84q-29 -31 -44 -74t-46 -164l-14 -55h303l-31 -146h-303l-96 -452h458l-43 -199h-909z" />
<glyph unicode="&#xa4;" d="M72 1018l112 112l172 -169q109 72 232 71q119 0 225 -69l168 165l113 -112l-166 -166q76 -119 76 -229q0 -119 -74 -226l170 -170l-113 -112l-168 168q-109 -76 -235 -76q-113 0 -230 74l-168 -166l-112 112l168 168q-74 104 -74 228q0 121 76 225zM358 618.5 q0 -94.5 67 -161t161 -66.5t160.5 66.5t66.5 161t-66.5 161t-158.5 66.5q-96 0 -163 -66.5t-67 -161z" />
<glyph unicode="&#xa5;" d="M55 399l31 146h348l4 18l-43 158h-293l31 145h223l-137 500h289l78 -373q14 -68 22 -176l2 -29q25 66 58 132l280 446h320l-344 -500h217l-33 -145h-285l-112 -176h340l-31 -146h-340l-84 -399h-279l86 399h-348z" />
<glyph unicode="&#xa6;" horiz-adv-x="1024" d="M430 313h262v-655h-262v655zM430 655v711h262v-711h-262z" />
<glyph unicode="&#xa7;" d="M-78 -356l68 235q166 -92 356 -92q119 0 193.5 53.5t74.5 136.5q0 66 -67 109q-41 29 -223 115q-102 49 -160 122.5t-58 155.5q0 109 66 207q49 74 172 156q-57 57 -78.5 99t-21.5 97q0 78 39 160t104 143q160 147 410 148q147 0 340 -53l-72 -222q-168 63 -303 64 q-131 0 -201 -61q-61 -57 -61 -125q0 -55 49 -99q27 -23 57.5 -39t192.5 -88q227 -104 227 -276q0 -119 -82 -223q-59 -78 -170 -136q100 -78 100 -198q0 -80 -43 -167t-114 -153q-158 -145 -402 -145q-174 0 -393 76zM322 567q0 -88 112 -149q55 -31 238 -115 q135 98 135 207q0 55 -42 97t-147 87q-59 27 -165 82q-131 -109 -131 -209z" />
<glyph unicode="&#xa8;" horiz-adv-x="1024" d="M369 1206l49 228h223l-49 -228h-223zM756 1206l49 228h223l-47 -228h-225z" />
<glyph unicode="&#xa9;" horiz-adv-x="1615" d="M150 682q0 299 208.5 507t511.5 208q285 0 491 -211t206 -502q0 -297 -207 -506t-500 -209t-501.5 210t-208.5 503zM289 682q0 -242 168 -415t403 -173q233 0 400 173t167 415t-164.5 416t-394.5 174q-244 0 -411.5 -171t-167.5 -419zM465 694q0 182 118.5 289t321.5 107 q92 0 213 -37l-16 -152q-86 47 -182 47q-121 0 -191 -67.5t-70 -182t75 -185.5t194 -71q84 0 186 35l6 -155q-109 -27 -200 -27q-215 0 -335 105.5t-120 293.5z" />
<glyph unicode="&#xaa;" horiz-adv-x="729" d="M119 573l24 117h566l-25 -117h-565zM172 926q0 109 95 167t274 58h18q18 -2 55 -2h11q2 10 2 22q0 96 -129 97q-94 0 -211 -56l26 148q106 33 232 33q117 0 184.5 -53.5t67.5 -145.5q0 -37 -17 -121l-35 -176q-14 -74 -22 -135h-156l11 69q-82 -80 -201 -79 q-92 0 -148.5 48t-56.5 126zM354 940q0 -29 22.5 -46t57.5 -17q63 0 109.5 45t58.5 116q-10 2 -43 2q-205 0 -205 -100z" />
<glyph unicode="&#xab;" horiz-adv-x="1099" d="M104 512l281 369h268l-295 -375l156 -426h-231zM526 502l295 379h269l-310 -410l150 -391h-230z" />
<glyph unicode="&#xac;" horiz-adv-x="1024" d="M119 301v246h887v-547h-263v301h-624z" />
<glyph unicode="&#xad;" horiz-adv-x="495" d="M-10 406l45 212h495l-45 -212h-495z" />
<glyph unicode="&#xae;" horiz-adv-x="1615" d="M150 682q0 299 208.5 507t511.5 208q285 0 491 -211t206 -502q0 -297 -207 -506t-500 -209t-501.5 210t-208.5 503zM289 682q0 -242 168 -415t403 -173q233 0 400 173t167 415t-164.5 416t-394.5 174q-244 0 -411.5 -171t-167.5 -419zM582 301v782h278q154 0 221 -45 q84 -57 84 -166q0 -70 -37.5 -117.5t-105.5 -64.5q29 -20 42 -39.5t36 -68.5l123 -281h-205l-92 221q-25 59 -49.5 77.5t-77.5 18.5h-31v-317h-186zM766 756h65q139 0 140 100q0 88 -125 88h-80v-188z" />
<glyph unicode="&#xaf;" horiz-adv-x="1024" d="M365 1241l28 137h637l-29 -137h-636z" />
<glyph unicode="&#xb0;" horiz-adv-x="772" d="M227 1184q0 125 93.5 215t222.5 90q131 0 222 -90t91 -217q0 -129 -92 -220.5t-221 -91.5q-131 0 -223.5 91.5t-92.5 222.5zM383 1182q0 -66 46 -113t114 -47q63 0 110 46t47 111.5t-47 111.5t-112 46q-63 0 -110.5 -46t-47.5 -109z" />
<glyph unicode="&#xb1;" d="M92 150v178h957v-178h-957zM92 770v178h383v348h189v-348h385v-178h-385v-346h-189v346h-383z" />
<glyph unicode="&#xb2;" horiz-adv-x="505" d="M121 819l22 105q184 133 248 194.5t64 100.5q0 31 -21.5 49t-56.5 18q-57 0 -150 -43l-6 111q100 41 178 41q90 0 144.5 -44t54.5 -118q0 -90 -113 -195q-98 -86 -147 -114h215l-21 -105h-411z" />
<glyph unicode="&#xb3;" horiz-adv-x="505" d="M131 844l31 106q76 -37 143 -37q57 0 91 21.5t34 58.5q0 72 -129 72q-20 0 -45 -4l20 106q84 0 97 2q96 10 96 70q0 25 -21.5 40t-56.5 15q-63 0 -151 -37l14 111q86 27 164 27q86 0 138 -39t52 -103q0 -98 -114 -141q78 -39 77 -119q0 -82 -69.5 -133t-182.5 -51 q-114 0 -188 35z" />
<glyph unicode="&#xb4;" horiz-adv-x="1024" d="M520 1184l209 280h270l-323 -280h-156z" />
<glyph unicode="&#xb5;" horiz-adv-x="1204" d="M-49 -416l303 1428h264l-104 -496q-25 -121 -25 -168q0 -68 41 -111.5t102 -43.5q57 0 116 39.5t100 105.5q41 72 81 258l89 416h262l-162 -776q-33 -156 -41 -236h-248l21 109l4 20l6 14q0 6 2 13q-121 -174 -313 -174q-80 0 -158 34l-64 -432h-276z" />
<glyph unicode="&#xb6;" d="M137 840q0 111 42 220t112 181q125 125 352 125h567l-41 -199h-82l-335 -1583h-205l336 1583h-160l-336 -1583h-205l211 991h-22q-106 0 -170 72t-64 193z" />
<glyph unicode="&#xb7;" horiz-adv-x="550" d="M121 377l57 270h279l-58 -270h-278z" />
<glyph unicode="&#xb8;" horiz-adv-x="1024" d="M279 -375l51 86q68 -39 131 -39q53 0 86 23.5t33 62.5q0 27 -22.5 42.5t-59.5 15.5q-29 0 -74 -13l-35 45l117 152h102l-88 -113q47 8 80 9q145 0 145 -115q0 -84 -80.5 -142.5t-195.5 -58.5q-92 0 -190 45z" />
<glyph unicode="&#xb9;" horiz-adv-x="505" d="M225 1257l211 127h117l-121 -565h-137l70 330q12 59 18 82q-25 -20 -43 -31l-53 -31z" />
<glyph unicode="&#xba;" horiz-adv-x="825" d="M119 573l24 117h660l-25 -117h-659zM197 1020q0 145 98 258q102 115 287 115q145 0 225 -75t80 -210q0 -158 -109.5 -262.5t-273.5 -104.5q-135 0 -221 78t-86 201zM387 1012q0 -61 35 -99.5t90 -38.5q78 0 132 70t54 168q0 70 -33.5 109t-93.5 39q-76 0 -130 -73 t-54 -175z" />
<glyph unicode="&#xbb;" horiz-adv-x="1095" d="M29 143l309 410l-150 391h230l174 -422l-293 -379h-270zM465 143l295 375l-156 426h232l178 -432l-281 -369h-268z" />
<glyph unicode="&#xbc;" horiz-adv-x="1886" d="M236 1188l303 182h163l-174 -823h-194l102 481q20 96 33 133q-18 -18 -74 -53l-73 -45zM412 -84l1007 1534h156l-1008 -1534h-155zM1149 166l20 147l428 512h234l-111 -522h117l-29 -137h-116l-35 -166h-187l35 166h-356zM1348 301q16 2 43 2h143l45 211l33 127 q-117 -174 -264 -340z" />
<glyph unicode="&#xbd;" horiz-adv-x="1886" d="M236 1188l303 182h163l-174 -823h-194l102 481q20 96 33 133q-18 -18 -74 -53l-73 -45zM412 -84l1007 1534h156l-1008 -1534h-155zM1122 0l33 147l262 203q119 96 157 142.5t38 93.5t-32 75.5t-85 28.5q-78 0 -217 -65l-8 157q145 57 256 58q131 0 208.5 -63.5 t77.5 -170.5q0 -131 -163 -282q-111 -100 -228 -181l326 2l-31 -145h-594z" />
<glyph unicode="&#xbe;" horiz-adv-x="1886" d="M94 582l41 145q111 -51 209 -51q84 0 136 32.5t52 88.5q0 109 -192 108q-27 0 -61 -2l26 148h23l37 -2q102 -6 164.5 25.5t62.5 86.5q0 39 -33 62.5t-86 23.5q-86 0 -219 -53l20 154q119 39 234 38q127 0 201.5 -56t74.5 -150q0 -150 -178 -207q123 -55 123 -176 q0 -117 -100.5 -191t-261.5 -74q-164 1 -273 50zM410 -84l1009 1534h156l-1010 -1534h-155zM1149 166l18 147l428 512h236l-111 -522h117l-31 -137h-114l-35 -166h-189l35 166h-354zM1346 301q18 2 43 2h145l43 211q0 2 35 127q-110 -164 -266 -340z" />
<glyph unicode="&#xbf;" horiz-adv-x="987" d="M20 -10q0 139 115 256q16 18 180 151q80 66 111 112t41 112h242q-20 -141 -66.5 -212t-206.5 -208q-133 -113 -133 -207q0 -72 68.5 -117t179.5 -45q96 0 235 47l-4 -221q-129 -33 -280 -33q-223 0 -352.5 98.5t-129.5 266.5zM469 756l55 256h273l-54 -256h-274z" />
<glyph unicode="&#xc0;" horiz-adv-x="1425" d="M-76 0l834 1366h305l254 -1366h-279l-51 317h-573l-183 -317h-307zM535 532h417l-61 379q-20 123 -23 213h-10q-33 -88 -88 -180zM616 1767h261l157 -266h-164z" />
<glyph unicode="&#xc1;" horiz-adv-x="1425" d="M-76 0l834 1366h305l254 -1366h-279l-51 317h-573l-183 -317h-307zM535 532h417l-61 379q-20 123 -23 213h-10q-33 -88 -88 -180zM842 1501l213 266h274l-317 -266h-170z" />
<glyph unicode="&#xc2;" horiz-adv-x="1425" d="M-76 0l834 1366h305l254 -1366h-279l-51 317h-573l-183 -317h-307zM535 532h417l-61 379q-20 123 -23 213h-10q-33 -88 -88 -180zM618 1501l265 266h237l158 -266h-205l-92 156l-158 -156h-205z" />
<glyph unicode="&#xc3;" horiz-adv-x="1425" d="M-76 0l834 1366h305l254 -1366h-279l-51 317h-573l-183 -317h-307zM535 532h417l-61 379q-20 123 -23 213h-10q-33 -88 -88 -180zM618 1524q78 231 248 231q55 0 164 -55q70 -37 96 -37q29 0 55.5 22.5t41.5 57.5h108q-20 -106 -83.5 -166.5t-151.5 -60.5q-33 0 -54.5 8 t-105.5 49q-70 35 -115 35q-55 0 -92 -84h-111z" />
<glyph unicode="&#xc4;" horiz-adv-x="1425" d="M-76 0l834 1366h305l254 -1366h-279l-51 317h-573l-183 -317h-307zM535 532h417l-61 379q-20 123 -23 213h-10q-33 -88 -88 -180zM629 1511l49 236h227l-49 -236h-227zM1047 1511l49 236h227l-49 -236h-227z" />
<glyph unicode="&#xc5;" horiz-adv-x="1425" d="M-76 0l834 1366h305l254 -1366h-279l-51 317h-573l-183 -317h-307zM535 532h417l-61 379q-20 123 -23 213h-10q-33 -88 -88 -180zM762 1653q0 84 61.5 144.5t149.5 60.5q82 0 142.5 -61.5t60.5 -145.5q0 -86 -60.5 -146.5t-146.5 -60.5t-146.5 60.5t-60.5 148.5z M881 1651q0 -37 25.5 -62.5t62.5 -25.5t62.5 26.5t25.5 61.5t-25.5 61.5t-60.5 26.5q-37 0 -63.5 -25.5t-26.5 -62.5z" />
<glyph unicode="&#xc6;" horiz-adv-x="1863" d="M-78 0l1055 1366h967l-48 -215h-532l-43 -346h461l-47 -215h-439l-45 -375h461l-47 -215h-709l37 319h-508l-245 -319h-318zM645 535h381l47 383q0 29 19 126q4 25 10 50l4 24q0 4 4 41l-23 -35l-40 -59l-84 -117z" />
<glyph unicode="&#xc7;" horiz-adv-x="1206" d="M147 598q0 152 58.5 299t159.5 254q217 229 585 229q193 0 393 -69l-67 -221q-119 72 -283 71q-248 0 -399 -162q-72 -76 -113 -178t-41 -205q0 -174 114 -288.5t288 -114.5q139 0 276 63l-39 -247q-182 -47 -303 -43l-84 -109q45 10 86 10q152 0 152 -120 q0 -88 -81 -148.5t-200 -60.5q-90 0 -194 45l49 94q72 -39 135 -39q53 0 85 23.5t32 64.5q0 57 -90 57q-27 0 -66 -10l-37 45l113 152q-195 27 -311 121q-218 176 -218 487z" />
<glyph unicode="&#xc8;" horiz-adv-x="1095" d="M66 0l290 1366h811l-47 -215h-532l-72 -340h483l-45 -215h-483l-82 -381h545l-45 -215h-823zM475 1767h260l158 -266h-164z" />
<glyph unicode="&#xc9;" horiz-adv-x="1095" d="M66 0l290 1366h811l-47 -215h-532l-72 -340h483l-45 -215h-483l-82 -381h545l-45 -215h-823zM674 1501l213 266h274l-317 -266h-170z" />
<glyph unicode="&#xca;" horiz-adv-x="1095" d="M66 0l290 1366h811l-47 -215h-532l-72 -340h483l-45 -215h-483l-82 -381h545l-45 -215h-823zM471 1501l264 266h238l157 -266h-204l-92 156l-158 -156h-205z" />
<glyph unicode="&#xcb;" horiz-adv-x="1095" d="M66 0l290 1366h811l-47 -215h-532l-72 -340h483l-45 -215h-483l-82 -381h545l-45 -215h-823zM481 1511l49 236h228l-49 -236h-228zM899 1511l49 236h228l-50 -236h-227z" />
<glyph unicode="&#xcc;" horiz-adv-x="546" d="M35 0l291 1366h284l-291 -1366h-284zM203 1767h254l145 -266h-164z" />
<glyph unicode="&#xcd;" horiz-adv-x="546" d="M35 0l291 1366h284l-291 -1366h-284zM395 1501l199 266h268l-297 -266h-170z" />
<glyph unicode="&#xce;" horiz-adv-x="546" d="M35 0l291 1366h284l-291 -1366h-284zM195 1501l243 266h238l137 -266h-199l-77 156l-146 -156h-196z" />
<glyph unicode="&#xcf;" horiz-adv-x="546" d="M35 0l291 1366h284l-291 -1366h-284zM227 1511l49 236h213l-49 -236h-213zM549 1511l51 236h213l-51 -236h-213z" />
<glyph unicode="&#xd0;" horiz-adv-x="1427" d="M59 608l41 191h138l118 567h299q213 0 333 -28.5t212 -102.5q184 -150 184 -449q0 -207 -82.5 -382t-226.5 -275q-106 -72 -244.5 -100.5t-384.5 -28.5h-378l129 608h-138zM389 207q223 2 319.5 20.5t172.5 71.5q98 72 158.5 204t60.5 275q0 250 -191 336q-92 43 -250 43 h-67l-76 -358h299l-41 -191h-299z" />
<glyph unicode="&#xd1;" horiz-adv-x="1429" d="M55 0l291 1366h348l234 -809l39 -139l8 -41l14 -72h10q18 135 33 197l182 864h263l-289 -1366h-359l-229 807q-51 182 -55 252h-10q-4 -53 -27 -162l-191 -897h-262zM635 1524q78 231 248 231q55 0 164 -55q70 -37 96 -37q29 0 55.5 22.5t40.5 57.5h109 q-20 -106 -84 -166.5t-152 -60.5q-33 0 -54.5 8t-105.5 49q-70 35 -114 35q-55 0 -93 -84h-110z" />
<glyph unicode="&#xd2;" horiz-adv-x="1533" d="M139 551q0 172 64.5 336t177.5 282q213 223 547 224q270 0 419.5 -154t149.5 -430q0 -162 -63.5 -327t-171.5 -283q-203 -225 -555 -226q-291 0 -441 185q-127 157 -127 393zM426 535q0 -160 80 -256.5t213 -96.5q188 0 321 162q78 96 125 226t47 251q0 166 -79.5 264.5 t-217.5 98.5q-92 0 -179 -45t-148 -123q-74 -94 -118 -224t-44 -257zM676 1767h260l158 -266h-164z" />
<glyph unicode="&#xd3;" horiz-adv-x="1533" d="M139 551q0 172 64.5 336t177.5 282q213 223 547 224q270 0 419.5 -154t149.5 -430q0 -162 -63.5 -327t-171.5 -283q-203 -225 -555 -226q-291 0 -441 185q-127 157 -127 393zM426 535q0 -160 80 -256.5t213 -96.5q188 0 321 162q78 96 125 226t47 251q0 166 -79.5 264.5 t-217.5 98.5q-92 0 -179 -45t-148 -123q-74 -94 -118 -224t-44 -257zM868 1501l213 266h275l-318 -266h-170z" />
<glyph unicode="&#xd4;" horiz-adv-x="1533" d="M139 551q0 172 64.5 336t177.5 282q213 223 547 224q270 0 419.5 -154t149.5 -430q0 -162 -63.5 -327t-171.5 -283q-203 -225 -555 -226q-291 0 -441 185q-127 157 -127 393zM426 535q0 -160 80 -256.5t213 -96.5q188 0 321 162q78 96 125 226t47 251q0 166 -79.5 264.5 t-217.5 98.5q-92 0 -179 -45t-148 -123q-74 -94 -118 -224t-44 -257zM672 1501l264 266h238l157 -266h-205l-92 156l-157 -156h-205z" />
<glyph unicode="&#xd5;" horiz-adv-x="1533" d="M139 551q0 172 64.5 336t177.5 282q213 223 547 224q270 0 419.5 -154t149.5 -430q0 -162 -63.5 -327t-171.5 -283q-203 -225 -555 -226q-291 0 -441 185q-127 157 -127 393zM426 535q0 -160 80 -256.5t213 -96.5q188 0 321 162q78 96 125 226t47 251q0 166 -79.5 264.5 t-217.5 98.5q-92 0 -179 -45t-148 -123q-74 -94 -118 -224t-44 -257zM672 1524q78 231 248 231q55 0 163 -55q70 -37 97 -37q29 0 55.5 22.5t40.5 57.5h108q-20 -106 -83.5 -166.5t-151.5 -60.5q-33 0 -54.5 8t-105.5 49q-70 35 -115 35q-55 0 -92 -84h-110z" />
<glyph unicode="&#xd6;" horiz-adv-x="1533" d="M139 551q0 172 64.5 336t177.5 282q213 223 547 224q270 0 419.5 -154t149.5 -430q0 -162 -63.5 -327t-171.5 -283q-203 -225 -555 -226q-291 0 -441 185q-127 157 -127 393zM426 535q0 -160 80 -256.5t213 -96.5q188 0 321 162q78 96 125 226t47 251q0 166 -79.5 264.5 t-217.5 98.5q-92 0 -179 -45t-148 -123q-74 -94 -118 -224t-44 -257zM682 1511l49 236h227l-49 -236h-227zM1100 1511l49 236h227l-49 -236h-227z" />
<glyph unicode="&#xd7;" d="M184 416l295 295l-295 295l125 124l295 -294l295 294l125 -124l-295 -295l295 -295l-125 -125l-295 293l-295 -293z" />
<glyph unicode="&#xd8;" horiz-adv-x="1533" d="M92 53l144 146q-98 154 -99 352q0 172 64.5 337t177.5 281q215 223 547 224q223 0 370 -111l134 137l110 -110l-139 -142q94 -156 94 -342q0 -174 -62.5 -340t-172.5 -286q-207 -225 -551 -226q-238 0 -369 111l-137 -139zM424 532q0 -61 18 -135l666 707q-74 80 -203 80 q-86 0 -173 -46t-146 -122q-76 -94 -119 -224.5t-43 -259.5zM524 262q66 -80 203 -80q193 0 338 196.5t145 457.5q0 63 -18 129z" />
<glyph unicode="&#xd9;" horiz-adv-x="1437" d="M164 387q0 111 24 219l162 760h279l-158 -737q-25 -123 -25 -205q0 -109 64.5 -173.5t171.5 -64.5q154 0 250 123q66 86 108 289l164 768h279l-172 -809q-63 -293 -213 -430q-162 -150 -414 -150q-244 0 -383 109q-137 113 -137 301zM641 1767h260l158 -266h-164z" />
<glyph unicode="&#xda;" horiz-adv-x="1437" d="M164 387q0 111 24 219l162 760h279l-158 -737q-25 -123 -25 -205q0 -109 64.5 -173.5t171.5 -64.5q154 0 250 123q66 86 108 289l164 768h279l-172 -809q-63 -293 -213 -430q-162 -150 -414 -150q-244 0 -383 109q-137 113 -137 301zM834 1501l213 266h274l-317 -266 h-170z" />
<glyph unicode="&#xdb;" horiz-adv-x="1437" d="M164 387q0 111 24 219l162 760h279l-158 -737q-25 -123 -25 -205q0 -109 64.5 -173.5t171.5 -64.5q154 0 250 123q66 86 108 289l164 768h279l-172 -809q-63 -293 -213 -430q-162 -150 -414 -150q-244 0 -383 109q-137 113 -137 301zM631 1501l264 266h238l157 -266h-205 l-92 156l-157 -156h-205z" />
<glyph unicode="&#xdc;" horiz-adv-x="1437" d="M164 387q0 111 24 219l162 760h279l-158 -737q-25 -123 -25 -205q0 -109 64.5 -173.5t171.5 -64.5q154 0 250 123q66 86 108 289l164 768h279l-172 -809q-63 -293 -213 -430q-162 -150 -414 -150q-244 0 -383 109q-137 113 -137 301zM641 1511l49 236h228l-50 -236h-227z M1059 1511l49 236h227l-49 -236h-227z" />
<glyph unicode="&#xdd;" horiz-adv-x="1312" d="M217 1366h289l145 -373q31 -80 58 -176q0 -4 8 -29q27 49 90 132l352 446h320l-658 -803l-121 -563h-278l121 563zM748 1501l213 266h274l-317 -266h-170z" />
<glyph unicode="&#xde;" horiz-adv-x="1093" d="M41 0l291 1366h282l-39 -192h25q246 0 367 -74q162 -100 161 -293q0 -217 -165 -356q-145 -123 -418 -123q-27 0 -150 4l-69 -332h-285zM428 537q70 -4 94 -5q143 0 231.5 72t88.5 187q0 127 -129 159q-47 12 -195 13z" />
<glyph unicode="&#xdf;" horiz-adv-x="1204" d="M41 0l211 993q55 260 186 380t361 120q188 0 296.5 -92t108.5 -250q0 -147 -88 -244.5t-246 -124.5l-2 -10q102 -20 154 -63q102 -80 102 -234q0 -96 -40 -191.5t-109 -162.5q-141 -135 -395 -135q-82 0 -172 20l45 205q59 -23 118 -23q125 0 208 85t83 212t-100 174 q-41 20 -158 21l39 186q133 2 195 54q43 35 72.5 102.5t29.5 128.5q0 68 -47 113t-119 45q-102 0 -163.5 -78t-110.5 -311l-195 -920h-264z" />
<glyph unicode="&#xe0;" d="M41 260q0 117 68.5 202t193.5 126q123 39 309 39h14q9 0 33.5 -1t67.5 -1h35q4 57 4 59q0 82 -55.5 126t-157.5 44q-152 0 -320 -82l39 213q162 49 351 49q178 0 281.5 -85t103.5 -232q0 -68 -29 -207l-59 -297q-23 -117 -37 -213h-217l18 111q0 4 1 11t3 11l8 21 q0 6 2 14q-121 -184 -348 -184q-139 0 -224 75.5t-85 200.5zM301 281q0 -53 38 -86t97 -33q113 0 191 83t102 226h-84q-137 0 -219 -31q-57 -20 -91 -64t-34 -95zM389 1464h250l156 -280h-150z" />
<glyph unicode="&#xe1;" d="M41 260q0 117 68.5 202t193.5 126q123 39 309 39h14q9 0 33.5 -1t67.5 -1h35q4 57 4 59q0 82 -55.5 126t-157.5 44q-152 0 -320 -82l39 213q162 49 351 49q178 0 281.5 -85t103.5 -232q0 -68 -29 -207l-59 -297q-23 -117 -37 -213h-217l18 111q0 4 1 11t3 11l8 21 q0 6 2 14q-121 -184 -348 -184q-139 0 -224 75.5t-85 200.5zM301 281q0 -53 38 -86t97 -33q113 0 191 83t102 226h-84q-137 0 -219 -31q-57 -20 -91 -64t-34 -95zM584 1184l209 280h270l-324 -280h-155z" />
<glyph unicode="&#xe2;" d="M41 260q0 117 68.5 202t193.5 126q123 39 309 39h14q9 0 33.5 -1t67.5 -1h35q4 57 4 59q0 82 -55.5 126t-157.5 44q-152 0 -320 -82l39 213q162 49 351 49q178 0 281.5 -85t103.5 -232q0 -68 -29 -207l-59 -297q-23 -117 -37 -213h-217l18 111q0 4 1 11t3 11l8 21 q0 6 2 14q-121 -184 -348 -184q-139 0 -224 75.5t-85 200.5zM301 281q0 -53 38 -86t97 -33q113 0 191 83t102 226h-84q-137 0 -219 -31q-57 -20 -91 -64t-34 -95zM358 1184l269 280h215l149 -280h-184l-88 170l-176 -170h-185z" />
<glyph unicode="&#xe3;" d="M41 260q0 117 68.5 202t193.5 126q123 39 309 39h14q9 0 33.5 -1t67.5 -1h35q4 57 4 59q0 82 -55.5 126t-157.5 44q-152 0 -320 -82l39 213q162 49 351 49q178 0 281.5 -85t103.5 -232q0 -68 -29 -207l-59 -297q-23 -117 -37 -213h-217l18 111q0 4 1 11t3 11l8 21 q0 6 2 14q-121 -184 -348 -184q-139 0 -224 75.5t-85 200.5zM301 281q0 -53 38 -86t97 -33q113 0 191 83t102 226h-84q-137 0 -219 -31q-57 -20 -91 -64t-34 -95zM373 1217q63 219 219 219q51 0 143 -45q92 -43 115 -43q51 0 86 77h100q-20 -96 -84.5 -157.5t-144.5 -61.5 q-53 0 -127 41q-84 45 -121 45q-29 0 -47 -16t-39 -59h-100z" />
<glyph unicode="&#xe4;" d="M41 260q0 117 68.5 202t193.5 126q123 39 309 39h14q9 0 33.5 -1t67.5 -1h35q4 57 4 59q0 82 -55.5 126t-157.5 44q-152 0 -320 -82l39 213q162 49 351 49q178 0 281.5 -85t103.5 -232q0 -68 -29 -207l-59 -297q-23 -117 -37 -213h-217l18 111q0 4 1 11t3 11l8 21 q0 6 2 14q-121 -184 -348 -184q-139 0 -224 75.5t-85 200.5zM301 281q0 -53 38 -86t97 -33q113 0 191 83t102 226h-84q-137 0 -219 -31q-57 -20 -91 -64t-34 -95zM395 1206l49 228h224l-50 -228h-223zM782 1206l49 228h224l-47 -228h-226z" />
<glyph unicode="&#xe5;" d="M41 260q0 117 68.5 202t193.5 126q123 39 309 39h14q9 0 33.5 -1t67.5 -1h35q4 57 4 59q0 82 -55.5 126t-157.5 44q-152 0 -320 -82l39 213q162 49 351 49q178 0 281.5 -85t103.5 -232q0 -68 -29 -207l-59 -297q-23 -117 -37 -213h-217l18 111q0 4 1 11t3 11l8 21 q0 6 2 14q-121 -184 -348 -184q-139 0 -224 75.5t-85 200.5zM301 281q0 -53 38 -86t97 -33q113 0 191 83t102 226h-84q-137 0 -219 -31q-57 -20 -91 -64t-34 -95zM514 1333q0 84 61.5 144.5t149.5 60.5q82 0 142.5 -61.5t60.5 -145.5q0 -86 -60.5 -146.5t-146.5 -60.5 t-146.5 60.5t-60.5 148.5zM629 1331q0 -39 26.5 -65.5t65.5 -26.5t65.5 26.5t26.5 65.5q0 37 -26.5 64.5t-63.5 27.5q-39 0 -66.5 -26.5t-27.5 -65.5z" />
<glyph unicode="&#xe6;" horiz-adv-x="1755" d="M43 268q0 94 55.5 173t151.5 122q131 59 377 60q55 0 166 -7l4 54q0 176 -203 176q-158 0 -350 -84l32 213q205 55 386 55q150 0 233 -61q53 -37 70 -127q39 88 134 140t220 52q186 0 287.5 -102.5t101.5 -290.5q0 -96 -27 -211h-682q-2 -12 -2 -35q0 -104 73 -162.5 t204 -58.5q125 0 278 59l-45 -213q-174 -39 -331 -38q-283 0 -349 213q-57 -102 -135 -146q-117 -68 -286 -67q-168 0 -265.5 76.5t-97.5 209.5zM309 291q0 -59 43 -97t113 -38q133 0 221 118q47 66 78 191q-8 0 -17.5 1t-19.5 1l-72 2q-170 4 -258 -42t-88 -136zM1034 608 h430q10 47 11 76q0 78 -49.5 125t-129.5 47q-90 0 -159.5 -64.5t-102.5 -183.5z" />
<glyph unicode="&#xe7;" horiz-adv-x="876" d="M82 422q0 119 46 236.5t124 199.5q150 160 424 160q139 0 264 -39l-63 -211q-86 47 -189 47q-147 0 -233 -100q-102 -125 -103 -281q0 -106 64.5 -168.5t173.5 -62.5q111 0 203 49l-25 -215q-125 -43 -231 -43l-84 -107q43 10 79 11q68 0 106 -30t38 -85 q0 -84 -80 -143.5t-195 -59.5q-92 0 -190 45l49 86q68 -39 133 -39q51 0 84 23.5t33 62.5q0 27 -22.5 42.5t-57.5 15.5q-33 0 -74 -13l-34 45l116 152q-172 29 -264 138.5t-92 283.5z" />
<glyph unicode="&#xe8;" horiz-adv-x="1095" d="M82 399q0 244 143 437q154 205 434 204q186 0 290 -102t104 -289q0 -121 -25 -221h-698q-4 -33 -4 -43q0 -100 74.5 -157.5t205.5 -57.5q156 0 312 78l-31 -211q-168 -59 -338 -60q-213 0 -340 114.5t-127 307.5zM360 606h455q6 59 6 76q0 82 -50 131t-134 49 q-96 0 -170 -67.5t-107 -188.5zM414 1464h250l155 -280h-149z" />
<glyph unicode="&#xe9;" horiz-adv-x="1095" d="M82 399q0 244 143 437q154 205 434 204q186 0 290 -102t104 -289q0 -121 -25 -221h-698q-4 -33 -4 -43q0 -100 74.5 -157.5t205.5 -57.5q156 0 312 78l-31 -211q-168 -59 -338 -60q-213 0 -340 114.5t-127 307.5zM360 606h455q6 59 6 76q0 82 -50 131t-134 49 q-96 0 -170 -67.5t-107 -188.5zM608 1184l209 280h270l-323 -280h-156z" />
<glyph unicode="&#xea;" horiz-adv-x="1095" d="M82 399q0 244 143 437q154 205 434 204q186 0 290 -102t104 -289q0 -121 -25 -221h-698q-4 -33 -4 -43q0 -100 74.5 -157.5t205.5 -57.5q156 0 312 78l-31 -211q-168 -59 -338 -60q-213 0 -340 114.5t-127 307.5zM360 606h455q6 59 6 76q0 82 -50 131t-134 49 q-96 0 -170 -67.5t-107 -188.5zM397 1184l269 280h215l149 -280h-184l-88 170l-176 -170h-185z" />
<glyph unicode="&#xeb;" horiz-adv-x="1095" d="M82 399q0 244 143 437q154 205 434 204q186 0 290 -102t104 -289q0 -121 -25 -221h-698q-4 -33 -4 -43q0 -100 74.5 -157.5t205.5 -57.5q156 0 312 78l-31 -211q-168 -59 -338 -60q-213 0 -340 114.5t-127 307.5zM360 606h455q6 59 6 76q0 82 -50 131t-134 49 q-96 0 -170 -67.5t-107 -188.5zM422 1206l49 228h223l-49 -228h-223zM809 1206l49 228h223l-47 -228h-225z" />
<glyph unicode="&#xec;" horiz-adv-x="548" d="M49 0l211 1012h264l-211 -1012h-264zM139 1464h244l141 -280h-149z" />
<glyph unicode="&#xed;" horiz-adv-x="548" d="M49 0l211 1012h264l-211 -1012h-264zM328 1184l194 280h264l-303 -280h-155z" />
<glyph unicode="&#xee;" horiz-adv-x="548" d="M49 0l211 1012h264l-211 -1012h-264zM125 1184l248 280h215l129 -280h-178l-76 170l-160 -170h-178z" />
<glyph unicode="&#xef;" horiz-adv-x="548" d="M49 0l211 1012h264l-211 -1012h-264zM166 1206l49 228h205l-49 -228h-205zM479 1206l49 228h205l-49 -228h-205z" />
<glyph unicode="&#xf0;" horiz-adv-x="1204" d="M80 418q0 115 43 234.5t113 203.5q68 80 171 127t209 47q74 0 125.5 -18.5t122.5 -69.5q-35 211 -133 285l-207 -111l-80 103l172 92q-88 33 -198 53l59 125q117 -4 301 -92l221 121l80 -105l-188 -102q117 -115 187.5 -301.5t70.5 -382.5q0 -293 -165 -474.5 t-433 -181.5q-225 0 -352 138q-119 125 -119 309zM348 408q0 -109 57.5 -175.5t151.5 -66.5q129 0 211 102q51 63 81 152.5t30 175.5q0 119 -56.5 186.5t-154.5 67.5q-129 0 -215 -119q-105 -147 -105 -323z" />
<glyph unicode="&#xf1;" horiz-adv-x="1206" d="M45 0l154 725q8 37 16 82t10 55q18 100 25 150h252l-17 -90l-6 -27q-4 -20 -10 -41l6 -2q43 74 90 104q96 70 228 70q145 0 231 -87t86 -232q0 -104 -37 -279l-92 -428h-262l92 438q37 176 37 228q0 68 -39 108.5t-102 40.5q-135 0 -220 -133q-47 -76 -88 -260l-90 -422 h-264zM436 1217q63 219 219 219q51 0 144 -45q92 -43 114 -43q51 0 86 77h101q-20 -96 -85 -157.5t-145 -61.5q-53 0 -127 41q-84 45 -120 45q-29 0 -47.5 -16t-38.5 -59h-101z" />
<glyph unicode="&#xf2;" horiz-adv-x="1204" d="M80 422q0 113 43 229.5t115 202.5q158 186 442 186q223 0 345 -119.5t122 -338.5q0 -262 -171 -436.5t-427 -174.5q-221 0 -350 135q-119 130 -119 316zM352 406q0 -109 57.5 -175.5t149.5 -66.5q131 0 225.5 126t94.5 302q0 121 -55.5 188.5t-153.5 67.5 q-133 0 -215 -119q-103 -145 -103 -323zM444 1464h250l156 -280h-150z" />
<glyph unicode="&#xf3;" horiz-adv-x="1204" d="M80 422q0 113 43 229.5t115 202.5q158 186 442 186q223 0 345 -119.5t122 -338.5q0 -262 -171 -436.5t-427 -174.5q-221 0 -350 135q-119 130 -119 316zM352 406q0 -109 57.5 -175.5t149.5 -66.5q131 0 225.5 126t94.5 302q0 121 -55.5 188.5t-153.5 67.5 q-133 0 -215 -119q-103 -145 -103 -323zM639 1184l209 280h270l-323 -280h-156z" />
<glyph unicode="&#xf4;" horiz-adv-x="1204" d="M80 422q0 113 43 229.5t115 202.5q158 186 442 186q223 0 345 -119.5t122 -338.5q0 -262 -171 -436.5t-427 -174.5q-221 0 -350 135q-119 130 -119 316zM352 406q0 -109 57.5 -175.5t149.5 -66.5q131 0 225.5 126t94.5 302q0 121 -55.5 188.5t-153.5 67.5 q-133 0 -215 -119q-103 -145 -103 -323zM438 1184l269 280h215l149 -280h-184l-88 170l-176 -170h-185z" />
<glyph unicode="&#xf5;" horiz-adv-x="1204" d="M80 422q0 113 43 229.5t115 202.5q158 186 442 186q223 0 345 -119.5t122 -338.5q0 -262 -171 -436.5t-427 -174.5q-221 0 -350 135q-119 130 -119 316zM352 406q0 -109 57.5 -175.5t149.5 -66.5q131 0 225.5 126t94.5 302q0 121 -55.5 188.5t-153.5 67.5 q-133 0 -215 -119q-103 -145 -103 -323zM467 1217q63 219 219 219q51 0 143 -45q92 -43 115 -43q51 0 86 77h100q-20 -96 -84.5 -157.5t-144.5 -61.5q-53 0 -127 41q-84 45 -121 45q-29 0 -47 -16t-39 -59h-100z" />
<glyph unicode="&#xf6;" horiz-adv-x="1204" d="M80 422q0 113 43 229.5t115 202.5q158 186 442 186q223 0 345 -119.5t122 -338.5q0 -262 -171 -436.5t-427 -174.5q-221 0 -350 135q-119 130 -119 316zM352 406q0 -109 57.5 -175.5t149.5 -66.5q131 0 225.5 126t94.5 302q0 121 -55.5 188.5t-153.5 67.5 q-133 0 -215 -119q-103 -145 -103 -323zM461 1206l49 228h223l-49 -228h-223zM848 1206l49 228h223l-47 -228h-225z" />
<glyph unicode="&#xf7;" d="M127 621v178h956v-178h-956zM489 250v219h230v-219h-230zM489 952v219h230v-219h-230z" />
<glyph unicode="&#xf8;" horiz-adv-x="1204" d="M51 37l115 113q-86 133 -86 272q0 115 42 229.5t116 202.5q156 186 440 186q188 0 301 -82l108 107l95 -96l-109 -107q76 -113 76 -276q0 -266 -169 -440.5t-427 -174.5q-172 0 -295 84l-113 -112zM352 414q0 -27 6 -82l449 463q-53 53 -133 53q-137 0 -219 -119 q-103 -147 -103 -315zM430 213q59 -49 127 -49q131 0 215 106q49 61 79 146.5t30 161.5q0 27 -11 94z" />
<glyph unicode="&#xf9;" horiz-adv-x="1204" d="M127 299q0 129 127 713h264l-104 -496q-25 -123 -25 -170q0 -66 41 -109.5t102 -43.5q57 0 116 39.5t100 105.5q41 68 81 258l89 416h262l-162 -776q-37 -180 -41 -236h-248l21 109l4 20l4 14q2 2 2 13q-119 -174 -309 -174q-150 0 -237 86t-87 231zM451 1464h249 l156 -280h-149z" />
<glyph unicode="&#xfa;" horiz-adv-x="1204" d="M127 299q0 129 127 713h264l-104 -496q-25 -123 -25 -170q0 -66 41 -109.5t102 -43.5q57 0 116 39.5t100 105.5q41 68 81 258l89 416h262l-162 -776q-37 -180 -41 -236h-248l21 109l4 20l4 14q2 2 2 13q-119 -174 -309 -174q-150 0 -237 86t-87 231zM651 1184l209 280 h270l-323 -280h-156z" />
<glyph unicode="&#xfb;" horiz-adv-x="1204" d="M127 299q0 129 127 713h264l-104 -496q-25 -123 -25 -170q0 -66 41 -109.5t102 -43.5q57 0 116 39.5t100 105.5q41 68 81 258l89 416h262l-162 -776q-37 -180 -41 -236h-248l21 109l4 20l4 14q2 2 2 13q-119 -174 -309 -174q-150 0 -237 86t-87 231zM449 1184l268 280 h215l149 -280h-184l-88 170l-176 -170h-184z" />
<glyph unicode="&#xfc;" horiz-adv-x="1204" d="M127 299q0 129 127 713h264l-104 -496q-25 -123 -25 -170q0 -66 41 -109.5t102 -43.5q57 0 116 39.5t100 105.5q41 68 81 258l89 416h262l-162 -776q-37 -180 -41 -236h-248l21 109l4 20l4 14q2 2 2 13q-119 -174 -309 -174q-150 0 -237 86t-87 231zM465 1206l49 228h223 l-49 -228h-223zM852 1206l49 228h223l-47 -228h-225z" />
<glyph unicode="&#xfd;" d="M-88 -401l59 196q70 -20 121 -20q113 0 189 121l36 59l-178 1057h269l81 -578q12 -78 15 -178h8q23 61 84 172l315 584h289l-690 -1180q-86 -145 -174 -202.5t-227 -57.5q-84 0 -197 27zM582 1184l209 280h270l-324 -280h-155z" />
<glyph unicode="&#xfe;" horiz-adv-x="1206" d="M-45 -416l401 1889h265l-78 -365q-27 -127 -88 -268h8q59 96 135 140t182 44q168 0 268.5 -116.5t100.5 -311.5q0 -258 -147.5 -434t-364.5 -176q-221 0 -295 186q-2 -4 -2 -10q-2 -8 -2 -21l-4 -18l-115 -539h-264zM401 418q0 -106 50.5 -170t134.5 -64q119 0 205 119 t86 283q0 109 -51.5 172t-139.5 63q-119 0 -202 -117.5t-83 -285.5z" />
<glyph unicode="&#xff;" d="M-88 -401l59 196q70 -20 121 -20q113 0 189 121l36 59l-178 1057h269l81 -578q12 -78 15 -178h8q23 61 84 172l315 584h289l-690 -1180q-86 -145 -174 -202.5t-227 -57.5q-84 0 -197 27zM403 1206l50 228h223l-49 -228h-224zM791 1206l49 228h223l-47 -228h-225z" />
<glyph unicode="&#x152;" horiz-adv-x="1863" d="M141 598q0 324 226 553q215 217 575 217q43 0 166 -4q106 -6 235 -6h601l-46 -215h-512l-73 -342h467l-45 -215h-467l-80 -371h522l-45 -215h-674q-6 0 -20.5 -1t-41 -2t-50.5 -1q-35 -2 -97 -2q-317 0 -475 160q-166 170 -166 444zM418 584q0 -178 114 -287 q100 -94 275 -94q55 0 102 12l199 928q-76 16 -141 16q-268 0 -418 -192q-131 -170 -131 -383z" />
<glyph unicode="&#x153;" horiz-adv-x="1863" d="M82 416q0 133 56.5 265t150.5 214q162 143 405 143q174 0 279 -80q49 -37 80 -116q100 193 381 192q174 0 280 -94q109 -96 109 -293q0 -86 -23 -215h-684q-2 -16 -2 -45q0 -100 76 -162.5t201 -62.5q113 0 278 67l-45 -206q-152 -41 -321 -41q-276 0 -349 184 q-135 -190 -397 -191q-213 0 -344 122t-131 319zM358 422q0 -119 54.5 -186.5t148.5 -67.5q162 0 252 162q68 119 68 254q0 123 -55.5 192.5t-153.5 69.5q-129 0 -221.5 -125t-92.5 -299zM1155 610h422q8 43 8 74q0 80 -44 127t-120 47q-88 0 -159.5 -66.5t-106.5 -181.5z " />
<glyph unicode="&#x178;" horiz-adv-x="1312" d="M217 1366h289l145 -373q31 -80 58 -176q0 -4 8 -29q27 49 90 132l352 446h320l-658 -803l-121 -563h-278l121 563zM555 1511l49 236h227l-49 -236h-227zM973 1511l49 236h227l-49 -236h-227z" />
<glyph unicode="&#x2c6;" horiz-adv-x="1024" d="M352 1184l269 280h215l149 -280h-184l-88 170l-176 -170h-185z" />
<glyph unicode="&#x2dc;" horiz-adv-x="1024" d="M330 1217q63 219 219 219q51 0 143 -45q92 -43 115 -43q51 0 86 77h100q-20 -96 -84.5 -157.5t-144.5 -61.5q-53 0 -127 41q-84 45 -121 45q-29 0 -47 -16t-39 -59h-100z" />
<glyph unicode="&#x2000;" horiz-adv-x="927" />
<glyph unicode="&#x2001;" horiz-adv-x="1857" />
<glyph unicode="&#x2002;" horiz-adv-x="927" />
<glyph unicode="&#x2003;" horiz-adv-x="1857" />
<glyph unicode="&#x2004;" horiz-adv-x="618" />
<glyph unicode="&#x2005;" horiz-adv-x="462" />
<glyph unicode="&#x2006;" horiz-adv-x="309" />
<glyph unicode="&#x2007;" horiz-adv-x="309" />
<glyph unicode="&#x2008;" horiz-adv-x="231" />
<glyph unicode="&#x2009;" horiz-adv-x="370" />
<glyph unicode="&#x200a;" horiz-adv-x="102" />
<glyph unicode="&#x2010;" horiz-adv-x="495" d="M-10 406l45 212h495l-45 -212h-495z" />
<glyph unicode="&#x2011;" horiz-adv-x="495" d="M-10 406l45 212h495l-45 -212h-495z" />
<glyph unicode="&#x2012;" horiz-adv-x="495" d="M-10 406l45 212h495l-45 -212h-495z" />
<glyph unicode="&#x2013;" d="M41 406l45 212h997l-45 -212h-997z" />
<glyph unicode="&#x2014;" horiz-adv-x="1476" d="M-10 406l45 212h1476l-45 -212h-1476z" />
<glyph unicode="&#x2018;" horiz-adv-x="548" d="M180 983l262 490h238l-203 -490h-297z" />
<glyph unicode="&#x2019;" horiz-adv-x="542" d="M188 983l203 490h297l-264 -490h-236z" />
<glyph unicode="&#x201a;" horiz-adv-x="542" d="M-66 -219l203 489h297l-264 -489h-236z" />
<glyph unicode="&#x201c;" horiz-adv-x="1087" d="M252 983l262 490h238l-203 -490h-297zM657 983l263 490h237l-203 -490h-297z" />
<glyph unicode="&#x201d;" horiz-adv-x="1087" d="M252 983l203 490h297l-265 -490h-235zM657 983l203 490h297l-264 -490h-236z" />
<glyph unicode="&#x201e;" horiz-adv-x="1083" d="M14 -219l203 489h297l-264 -489h-236zM420 -219l203 489h297l-265 -489h-235z" />
<glyph unicode="&#x2022;" horiz-adv-x="1366" d="M401 692q0 119 83 202t204 83q115 0 198 -84t83 -201t-83 -199.5t-200 -82.5q-119 0 -202 82.5t-83 199.5z" />
<glyph unicode="&#x2026;" horiz-adv-x="1650" d="M45 0l57 270h279l-57 -270h-279zM596 0l57 270h279l-58 -270h-278zM1145 0l57 270h279l-58 -270h-278z" />
<glyph unicode="&#x202f;" horiz-adv-x="370" />
<glyph unicode="&#x2039;" horiz-adv-x="548" d="M51 512l287 389h270l-301 -399l139 -404h-225z" />
<glyph unicode="&#x203a;" horiz-adv-x="546" d="M-29 123l301 399l-139 404h225l170 -414l-286 -389h-271z" />
<glyph unicode="&#x205f;" horiz-adv-x="462" />
<glyph unicode="&#x20ac;" horiz-adv-x="1431" d="M100 514l76 141h111q2 27 10 68h-152l74 141h117q92 254 282.5 391.5t450.5 137.5q221 0 363 -105l-132 -246q-88 141 -243 142q-272 0 -420 -320h571l-73 -141h-545q-10 -41 -15 -68h523l-76 -141h-455q8 -156 86 -244t205 -88q162 0 291 129l-66 -305 q-117 -33 -239 -33q-369 0 -506 295q-49 100 -57 246h-181z" />
<glyph unicode="&#x2122;" horiz-adv-x="1779" d="M-94 1225v145h659v-145h-233v-637h-191v637h-235zM651 588v782h287l123 -354q41 -119 57 -195q16 74 45 154l148 395h291v-782h-187v600l-4 -12q-14 -41 -14 -52l-197 -536h-160l-153 426q-35 96 -60 188v-614h-176z" />
<glyph unicode="&#xe000;" horiz-adv-x="1010" d="M0 1010h1010v-1010h-1010v1010z" />
<glyph unicode="&#xfb01;" horiz-adv-x="1310" d="M111 819l41 193h206q51 227 103 309q106 172 330 172q78 0 176 -20l-62 -195q-39 12 -76 12q-123 0 -172 -119q-18 -45 -43 -159h242l-41 -193h-237l-170 -819h-265l174 819h-206zM821 0l211 1012h264l-211 -1012h-264zM1067 1198l51 248h275l-52 -248h-274z" />
<glyph unicode="&#xfb02;" horiz-adv-x="1316" d="M111 819l41 193h206q51 231 103 309q106 174 330 174q63 0 178 -20l-64 -197q-45 14 -76 14q-123 0 -172 -118q-16 -47 -43 -162h242l-41 -193h-237l-170 -819h-265l174 819h-206zM821 0l314 1473h264l-314 -1473h-264z" />
<glyph unicode="&#xfb03;" horiz-adv-x="1990" d="M111 819l41 193h206q49 225 103 309q106 172 330 172q78 0 178 -20l-64 -195q-39 12 -76 12q-123 0 -172 -119q-16 -43 -43 -159h422q51 227 103 309q106 172 331 172q76 0 177 -20l-64 -195q-39 12 -74 12q-123 0 -172 -119q-18 -45 -43 -159h242l-41 -193h-238 l-170 -819h-266l174 819h-417l-170 -819h-265l174 819h-206zM1501 0l211 1012h264l-211 -1012h-264zM1745 1198l53 248h275l-54 -248h-274z" />
<glyph unicode="&#xfb04;" horiz-adv-x="1996" d="M111 819l41 193h206q49 225 103 309q106 172 330 172q78 0 178 -20l-64 -195q-39 12 -76 12q-123 0 -172 -119q-16 -43 -43 -159h422q51 225 103 309q111 174 329 174q63 0 179 -20l-64 -197q-43 14 -76 14q-121 0 -170 -118q-16 -47 -43 -162h242l-41 -193h-238 l-170 -819h-266l174 819h-417l-170 -819h-265l174 819h-206zM1501 0l314 1473h262l-312 -1473h-264z" />
</font>
</defs>
</svg>
