<?xml version="1.0" standalone="no"?>
<!DOCTYPE svg PUBLIC "-//W3C//DTD SVG 1.1//EN" "http://www.w3.org/Graphics/SVG/1.1/DTD/svg11.dtd" >
<svg xmlns="http://www.w3.org/2000/svg">
<metadata>
This is a custom SVG webfont generated by Font Squirrel.
Copyright   : Typeface  FontSite Inc 19962008 All Rights Reserved wwwfontsitecom
Designer    : FontSitecom
Foundry URL : httpwwwfontsitecom
</metadata>
<defs>
<font id="webfont1l1oLWSU" horiz-adv-x="1099" >
<font-face units-per-em="2048" ascent="1552" descent="-496" />
<missing-glyph horiz-adv-x="512" />
<glyph unicode=" "  horiz-adv-x="512" />
<glyph unicode="&#x09;" horiz-adv-x="512" />
<glyph unicode="&#xa0;" horiz-adv-x="512" />
<glyph unicode="!" horiz-adv-x="800" d="M332 1366h225l-25 -987h-167zM344 0v211h213v-211h-213z" />
<glyph unicode="&#x22;" horiz-adv-x="665" d="M86 1475h203l-31 -547h-141zM375 1475h205l-33 -547h-139z" />
<glyph unicode="#" d="M43 414l20 131h177l47 301h-176l22 131h182l62 389h153l-61 -383h264l62 383h153l-61 -389h178l-21 -131h-180l-47 -301h182l-20 -131h-182l-66 -414h-153l65 414h-264l-66 -414h-153l65 414h-182zM399 545h265l49 301h-267z" />
<glyph unicode="$" d="M96 1010q0 156 100.5 253t282.5 113v172h105v-170q61 2 168.5 -16.5t162.5 -40.5l-18 -184q-141 70 -313 82v-418l59 -21q129 -43 219 -110q133 -102 133 -275q0 -166 -112.5 -275.5t-307.5 -129.5v-172h-104v170q-152 4 -354 61l14 199q162 -82 340 -86v477 q-121 33 -229 106q-146 99 -146 265zM295 1030q0 -86 84 -143q33 -20 100 -49v372q-88 -18 -136 -65t-48 -115zM575 166q84 10 136 49q86 70 86 164q0 143 -222 221v-434z" />
<glyph unicode="%" horiz-adv-x="1665" d="M47 1036q0 166 86 259.5t240 93.5q156 0 238.5 -92.5t82.5 -262.5q0 -162 -88 -258t-233 -96q-152 0 -239 95t-87 261zM201 1030q0 -109 45 -171t125 -62t125 62.5t45 172.5q0 115 -44 178.5t-122 63.5q-82 0 -128 -64.5t-46 -179.5zM332 -84l868 1534h129l-868 -1534 h-129zM969 334q0 166 86 259t239 93q156 0 239 -92t83 -262q0 -162 -88 -258.5t-236 -96.5q-152 0 -237.5 95.5t-85.5 261.5zM1122 330q0 -111 45 -173.5t125 -62.5t125 62.5t45 173.5q0 115 -44 178t-122 63q-82 0 -128 -63t-46 -178z" />
<glyph unicode="&#x26;" horiz-adv-x="1425" d="M162 381q0 180 151 297q53 39 162 84q-68 57 -110.5 145t-42.5 166q0 133 99 219t255 86q154 0 249 -80.5t95 -210.5q0 -215 -289 -356l270 -328q78 137 86 338h183q-12 -297 -152 -469l232 -272h-240l-109 129q-88 -84 -173 -120t-199 -36q-203 0 -335 115t-132 293z M369 383q0 -104 75.5 -176t186.5 -72q137 0 262 127l-320 383q-86 -49 -110 -72q-94 -75 -94 -190zM512 1069q0 -82 119 -229q111 63 159 119.5t48 119.5q0 61 -46.5 101.5t-116 40.5t-116.5 -44.5t-47 -107.5z" />
<glyph unicode="'" horiz-adv-x="374" d="M86 1475h203l-31 -547h-141z" />
<glyph unicode="(" horiz-adv-x="724" d="M127 535q0 293 137 606q55 129 180 334h174q-289 -530 -288 -940q0 -412 297 -953h-176q-324 500 -324 953z" />
<glyph unicode=")" horiz-adv-x="724" d="M98 1475h176q324 -500 324 -953q0 -293 -137 -606q-55 -129 -180 -334h-175q289 530 289 940q0 412 -297 953z" />
<glyph unicode="*" d="M168 1147l43 137l276 -102l-10 293h146l-13 -293l279 102l45 -137l-281 -82l183 -229l-119 -88l-164 243l-162 -241l-117 84l177 231z" />
<glyph unicode="+" d="M80 623v149h395v381h150v-381h397v-149h-397v-383h-150v383h-395z" />
<glyph unicode="," horiz-adv-x="546" d="M43 -264l123 483h219l-170 -483h-172z" />
<glyph unicode="-" horiz-adv-x="514" d="M0 428v154h514v-154h-514z" />
<glyph unicode="." horiz-adv-x="546" d="M164 0v219h219v-219h-219z" />
<glyph unicode="/" horiz-adv-x="890" d="M-59 -418l692 1893h158l-687 -1893h-163z" />
<glyph unicode="0" d="M86 690q0 270 72 438q115 260 399 261q121 0 222.5 -66t152.5 -174q82 -176 82 -479q0 -276 -80 -451q-51 -113 -154.5 -179.5t-230.5 -66.5q-133 0 -236.5 72t-154.5 199q-72 174 -72 446zM285 684q0 -287 82 -434q68 -117 184 -117q264 0 264 549q0 258 -68.5 402.5 t-189.5 144.5q-176 0 -235 -223q-37 -142 -37 -322z" />
<glyph unicode="1" d="M213 1087l334 279h182v-1366h-194v1153q-12 -16 -31 -33l-45 -43l-137 -119z" />
<glyph unicode="2" d="M109 0v207q330 285 480 474t150 323q0 96 -75.5 157.5t-192.5 61.5q-147 0 -309 -99l-21 179q199 80 361 79q201 0 324.5 -103t123.5 -271q0 -129 -79.5 -262.5t-274.5 -331.5q-162 -162 -297 -260q47 8 145 8h535v-162h-870z" />
<glyph unicode="3" d="M109 37l8 180q184 -76 334 -76q133 0 218 67.5t85 172.5q0 172 -199 227q-70 20 -201 21q-33 0 -63 -2v166q133 0 223 16q236 47 236 213q0 90 -77 146.5t-198 56.5q-150 0 -311 -68l-12 168q164 59 333 59q207 0 320 -79q143 -102 143 -281q0 -127 -91 -214t-236 -99 q154 -8 249 -103.5t95 -242.5q0 -174 -136.5 -278.5t-365.5 -104.5q-176 0 -354 55z" />
<glyph unicode="4" d="M43 299v162l553 905h281v-905h180v-162h-180v-299h-195v299h-639zM238 461h45h399v543q0 90 23 296q-33 -100 -132 -277t-335 -562z" />
<glyph unicode="5" d="M170 33l6 180q154 -68 279 -68q143 0 233 77t90 200q0 125 -93 200.5t-247 75.5q-117 0 -258 -47l10 715h756v-162h-575l-4 -262q0 -25 -7 -104q70 20 154 20q213 0 344 -117.5t131 -308.5q0 -203 -145.5 -324.5t-386.5 -121.5q-137 0 -287 47z" />
<glyph unicode="6" d="M106 639q0 367 141.5 558.5t411.5 191.5q135 0 283 -46l-24 -174q-125 59 -250 60q-92 0 -171 -47t-126 -129q-33 -55 -54.5 -142.5t-21.5 -160.5v-33q41 70 125 110.5t184 40.5q178 0 293 -122.5t115 -313.5q0 -201 -124 -329t-319 -128q-225 0 -344 170t-119 494z M317 434q0 -127 72 -213t178.5 -86t176 81t69.5 206q0 123 -69.5 205t-176.5 82q-109 0 -179.5 -77t-70.5 -198z" />
<glyph unicode="7" d="M104 1204v162h873v-162l-512 -1204h-217l411 938q80 176 129 268l-12 -2h-39h-63h-570z" />
<glyph unicode="8" d="M78 360q0 258 299 365q-119 25 -193.5 115t-74.5 207q0 156 119.5 249t320.5 93q190 0 309 -92.5t119 -241.5q0 -102 -66.5 -186.5t-187.5 -135.5q145 -47 222 -142t77 -226q0 -174 -128 -282t-335 -108q-213 0 -347 107.5t-134 277.5zM289 375q0 -104 77.5 -172 t198.5 -68q113 0 185.5 60.5t72.5 156.5q0 129 -145 219q-53 35 -162 74q-227 -110 -227 -270zM307 1055q0 -143 283 -262q45 29 67 49q121 98 121 211q0 78 -68.5 132t-167 54t-167 -53t-68.5 -131z" />
<glyph unicode="9" d="M80 940q0 199 123 326t313 127q227 0 347 -167t120 -485q0 -377 -142.5 -570.5t-418.5 -193.5q-127 0 -272 46l24 174q127 -59 248 -60q215 0 317 219q47 109 60 289q-111 -147 -307 -147q-182 0 -297 123.5t-115 318.5zM279 948q0 -127 70.5 -209t177 -82t176 78 t69.5 197q0 125 -70.5 213t-173.5 88q-109 0 -179 -80t-70 -205z" />
<glyph unicode=":" horiz-adv-x="546" d="M164 0v219h219v-219h-219zM164 782v219h219v-219h-219z" />
<glyph unicode=";" horiz-adv-x="546" d="M41 -264l123 483h219l-168 -483h-174zM145 782v219h220v-219h-220z" />
<glyph unicode="&#x3c;" horiz-adv-x="1024" d="M68 612v158l886 428v-184l-690 -322l690 -323v-183z" />
<glyph unicode="=" d="M80 479v150h942v-150h-942zM80 766v149h942v-149h-942z" />
<glyph unicode="&#x3e;" horiz-adv-x="1024" d="M70 186v183l690 323l-690 322v182l886 -426v-158z" />
<glyph unicode="?" horiz-adv-x="1042" d="M199 1329q176 59 331 60q186 0 303 -98.5t117 -254.5q0 -88 -40 -166.5t-150 -207.5q-78 -90 -99.5 -138.5t-21.5 -142.5h-176q0 139 30.5 206.5t151.5 205.5q102 111 103 221q0 90 -66 145t-174 55q-143 0 -295 -75zM449 0v213h208v-213h-208z" />
<glyph unicode="@" horiz-adv-x="1562" d="M98 678q0 301 208 508t509 207q281 0 465 -173t184 -434q0 -193 -102 -338t-236 -145q-59 0 -100 35t-51 94q-92 -141 -256 -141q-125 0 -206 93t-81 237q0 170 105.5 291.5t253.5 121.5q158 0 217 -137l22 115h131l-82 -420q-12 -66 -12 -96q0 -37 18.5 -60.5 t47.5 -23.5q82 0 148.5 114.5t66.5 257.5q0 213 -148.5 351.5t-378.5 138.5q-250 0 -422 -173t-172 -425t162 -418q158 -166 434 -166q229 0 420 86l33 -119q-203 -86 -447 -86q-322 0 -522 195q-98 96 -153.5 231.5t-55.5 278.5zM580 623q0 -88 48 -143.5t124 -55.5 q88 0 151.5 84t63.5 203q0 84 -44 134t-118 50q-90 0 -157.5 -80.5t-67.5 -191.5z" />
<glyph unicode="A" horiz-adv-x="1398" d="M10 0l582 1366h205l592 -1366h-220l-143 346h-664l-141 -346h-211zM424 512h534l-157 381q-94 223 -111 305q-25 -82 -115 -309z" />
<glyph unicode="B" horiz-adv-x="1185" d="M176 0v1366h324q156 0 227.5 -12.5t132.5 -46.5q172 -100 172 -291q0 -166 -125 -254q-59 -43 -166 -68q129 -18 197 -63q135 -92 135 -264q0 -100 -49 -182.5t-137 -129.5q-100 -55 -322 -55h-389zM371 166h151q160 0 228 33q123 57 122 186q0 76 -46 134.5t-126 84.5 q-63 20 -227 21h-102v-459zM371 784h139q139 0 198.5 22.5t94.5 73t35 111.5q0 68 -40 118t-112 73q-61 18 -215 18h-100v-416z" />
<glyph unicode="C" horiz-adv-x="1189" d="M98 690q0 303 200 494.5t517 191.5q180 0 311 -61l-16 -185q-141 80 -285 80q-229 0 -373.5 -144t-144.5 -372q0 -229 149.5 -379.5t377.5 -150.5q137 0 292 61l15 -188q-141 -47 -303 -47q-299 0 -484 143q-256 197 -256 557z" />
<glyph unicode="D" horiz-adv-x="1411" d="M176 0v1366h283q242 0 364 -33q219 -59 355.5 -239.5t136.5 -415.5q0 -223 -123 -393t-336 -240q-141 -45 -367 -45h-313zM371 166h102q227 0 344 49q135 59 212 183t77 286q0 164 -89 297t-235 184q-102 35 -307 35h-104v-1034z" />
<glyph unicode="E" horiz-adv-x="1079" d="M176 0v1366h760v-166h-565v-403h524v-166h-524v-465h581v-166h-776z" />
<glyph unicode="F" horiz-adv-x="987" d="M176 0v1366h725v-166h-530v-409h510v-166h-510v-625h-195z" />
<glyph unicode="G" horiz-adv-x="1406" d="M98 694q0 311 203 496.5t543 185.5q205 0 375 -67l-15 -187q-158 88 -348 88q-242 0 -395.5 -144t-153.5 -374q0 -242 153.5 -389t403.5 -147q86 0 185 30v396h-293v166h487v-695q-188 -63 -393 -63q-346 0 -549 190t-203 514z" />
<glyph unicode="H" horiz-adv-x="1402" d="M176 0v1366h195v-573h661v573h195v-1366h-195v627h-661v-627h-195z" />
<glyph unicode="I" horiz-adv-x="573" d="M190 0v1366h195v-1366h-195z" />
<glyph unicode="J" horiz-adv-x="753" d="M39 6v170q72 -29 143 -29q137 0 183 121q20 49 20 217v881h195v-930q0 -145 -7.5 -191t-35.5 -100q-92 -164 -326 -163q-59 -1 -172 24z" />
<glyph unicode="K" horiz-adv-x="1290" d="M176 0v1366h195v-457q0 -117 -4 -164l112 125l477 496h263l-644 -647l699 -719h-283l-497 530q-12 12 -125 146q2 -55 2 -139v-537h-195z" />
<glyph unicode="L" horiz-adv-x="983" d="M176 0v1366h195v-1200h577v-166h-772z" />
<glyph unicode="M" horiz-adv-x="1853" d="M176 0v1366h322l268 -686l119 -309q33 -102 43 -150q31 115 164 463l260 682h325v-1366h-194v780q0 66 3 238t3 229v29q-10 -31 -12 -35l-33 -106q-18 -57 -90 -254l-41 -117q-8 -25 -23 -64l-16 -36l-256 -664h-189l-258 664q-145 379 -209 575l-12 37v-31 q10 -113 12 -186q0 -27 5 -158q4 -123 4 -135v-766h-195z" />
<glyph unicode="N" horiz-adv-x="1443" d="M176 0v1366h266l465 -805q137 -240 187 -391q-20 199 -21 539v657h195v-1366h-252l-432 741q-186 319 -230 469q16 -186 17 -514v-696h-195z" />
<glyph unicode="O" horiz-adv-x="1517" d="M98 680q0 156 51.5 298t141.5 239q166 176 477 176q297 0 474 -193.5t177 -517.5q0 -305 -164 -504q-170 -205 -493 -205q-307 0 -481 193q-84 92 -133.5 230.5t-49.5 283.5zM307 684q0 -246 127 -401.5t325.5 -155.5t324.5 154.5t126 396.5q0 248 -123.5 404.5 t-320.5 156.5q-209 0 -334 -150.5t-125 -404.5z" />
<glyph unicode="P" horiz-adv-x="1087" d="M178 0v1366h271q244 0 346 -37q115 -41 181 -140t66 -231q0 -129 -64.5 -227t-178.5 -143q-100 -41 -318 -41h-108v-547h-195zM373 713h106q170 0 240 39q115 66 115 206q0 82 -46.5 140.5t-130.5 83.5q-66 18 -202 18h-82v-487z" />
<glyph unicode="Q" horiz-adv-x="1517" d="M98 682q0 324 180.5 517.5t481.5 193.5q332 0 504 -219q156 -193 155 -496q0 -229 -94 -397t-268 -250l327 -295h-256l-260 244q-74 -6 -104 -7q-303 0 -484.5 193.5t-181.5 515.5zM307 690q0 -250 126 -406.5t325 -156.5q201 0 326.5 153.5t125.5 397.5 q0 248 -123.5 404.5t-320.5 156.5q-207 0 -333 -150.5t-126 -398.5z" />
<glyph unicode="R" horiz-adv-x="1193" d="M176 0v1366h330q205 0 307 -35q104 -35 165.5 -123t61.5 -202q0 -156 -112 -250q-63 -51 -178 -72q61 -27 96 -65.5t74 -120.5l231 -498h-225l-176 410q-55 127 -102.5 162.5t-164.5 35.5h-112v-608h-195zM371 776h121q145 0 213 25q135 49 135 188q0 66 -35 117t-96 72 q-59 23 -197 22h-141v-424z" />
<glyph unicode="S" horiz-adv-x="970" d="M88 1020q0 168 119 270.5t311 102.5q152 0 299 -50l-24 -172q-147 55 -256 55.5t-177.5 -52t-68.5 -136.5q0 -70 47 -120t174 -113l74 -37q172 -86 237.5 -169t65.5 -214q0 -184 -128 -298t-337 -114q-170 0 -313 56l20 182q150 -72 268 -72q127 0 204 63.5t77 168.5 q0 76 -50 132t-161 107l-76 35q-162 74 -233.5 161t-71.5 214z" />
<glyph unicode="T" horiz-adv-x="1083" d="M12 1200v166h1059v-166h-428v-1200h-194v1200h-437z" />
<glyph unicode="U" horiz-adv-x="1409" d="M176 623v743h195v-715q0 -248 49 -346q39 -78 116.5 -122t176.5 -44q225 0 297 207q29 80 28 295v725h195v-770q0 -156 -17.5 -244t-64.5 -159q-137 -219 -444 -220q-170 0 -295 73t-183 208q-53 119 -53 369z" />
<glyph unicode="V" horiz-adv-x="1296" d="M10 1366h215l334 -901q66 -184 96 -305q29 131 93 305l333 901h205l-516 -1366h-238z" />
<glyph unicode="W" horiz-adv-x="1953" d="M10 1366h213l236 -799q74 -256 96 -377q10 74 86 383l197 793h280l209 -799q29 -113 49.5 -200.5t32.5 -130.5l12 -46q27 158 90 377l234 799h201l-410 -1366h-248l-237 897q-45 168 -76 311q-53 -250 -68 -311l-225 -897h-252z" />
<glyph unicode="X" horiz-adv-x="1300" d="M12 0l504 717l-465 649h236l362 -516l361 516h225l-459 -649l512 -717h-248l-405 584l-389 -584h-234z" />
<glyph unicode="Y" horiz-adv-x="1288" d="M10 1366h242l338 -512q45 -66 59 -102q16 37 56 96l342 518h231l-533 -786v-580h-194v573z" />
<glyph unicode="Z" horiz-adv-x="1093" d="M61 0v166l555 805q123 180 175 233q-100 -4 -191 -4h-514v166h915v-180l-585 -842q-8 -12 -25.5 -35.5t-19.5 -27.5q-25 -33 -37 -52q-27 -33 -27 -34q-2 -2 -22 -35q49 6 151 6h578v-166h-953z" />
<glyph unicode="[" horiz-adv-x="727" d="M195 -418v1893h380v-134h-204v-1628h204v-131h-380z" />
<glyph unicode="\" horiz-adv-x="890" d="M100 1475h158l692 -1893h-164z" />
<glyph unicode="]" horiz-adv-x="727" d="M152 -285h204v1628h-204v132h380v-1893h-380v133z" />
<glyph unicode="^" horiz-adv-x="1024" d="M39 729l352 641h242l352 -641h-197l-276 496l-276 -496h-197z" />
<glyph unicode="_" horiz-adv-x="1024" d="M0 -121h1024v-168h-1024v168z" />
<glyph unicode="`" horiz-adv-x="1024" d="M254 1450h205l168 -281h-131z" />
<glyph unicode="a" horiz-adv-x="1083" d="M88 287q0 158 136 243.5t388 85.5q43 0 140 -6q-2 252 -250 252q-150 0 -295 -98l-10 164q160 92 335 92q270 0 359 -184q41 -84 41 -287v-209q0 -211 10 -340h-170q-2 39 -2 80q0 31 2 92q-111 -186 -336 -186q-158 0 -253 82t-95 219zM285 289q0 -70 54 -113t138 -43 q82 0 148.5 39t99.5 107q31 63 31 194q-51 6 -101 6q-370 0 -370 -190z" />
<glyph unicode="b" horiz-adv-x="1181" d="M145 0v1475h187v-529q0 -47 -2 -82l-4 -35q37 86 132 138.5t214 52.5q195 0 312.5 -139.5t117.5 -370.5q0 -238 -118 -381t-316 -143q-115 0 -206 49t-138 137v-172h-179zM336 500q0 -152 83 -254.5t208 -102.5q121 0 199.5 101.5t78.5 257.5q0 158 -75.5 259t-194.5 101 q-131 0 -215 -102t-84 -260z" />
<glyph unicode="c" horiz-adv-x="874" d="M80 500q0 213 123 350q70 76 170 120t209 44q123 0 227 -41l-12 -164q-80 47 -183 47q-150 0 -244 -98.5t-94 -249.5q0 -162 93.5 -262.5t240.5 -100.5q106 0 209 64l15 -170q-104 -51 -246 -51q-229 0 -368.5 140.5t-139.5 371.5z" />
<glyph unicode="d" horiz-adv-x="1187" d="M80 498q0 231 122 376.5t316 145.5q209 0 332 -174l-4 88q0 10 -1 26.5t-1 22.5v492h186v-1008q0 -215 14 -467h-180v168q-127 -182 -346 -182q-201 0 -319.5 138t-118.5 374zM276 498q0 -158 78 -256.5t203 -98.5t208 101.5t83 255.5q0 152 -82 257t-201 105 q-127 0 -208 -101t-81 -263z" />
<glyph unicode="e" horiz-adv-x="1069" d="M80 510q0 233 130 375.5t343 142.5q207 0 321.5 -142.5t114.5 -400.5q0 -18 -2 -32h-721q18 -150 108.5 -236t227.5 -86q156 0 311 94v-178q-162 -74 -321 -74q-236 0 -374 145.5t-138 391.5zM268 598h535q-16 121 -51 172q-72 111 -205 111q-111 0 -186 -77t-93 -206z " />
<glyph unicode="f" horiz-adv-x="722" d="M6 856v145h236v43q0 211 53 299q80 137 270 138q63 0 135 -17v-153q-63 12 -94 12q-129 0 -162 -102q-16 -59 -16 -174v-46h272v-145h-272v-856h-186v856h-236z" />
<glyph unicode="g" horiz-adv-x="1159" d="M80 496q0 233 121 377.5t315 144.5q117 0 207 -50t131 -139q2 12 2 23q-2 18 -2 59v93h174v-830q0 -248 -33 -348q-39 -125 -157.5 -191.5t-298.5 -66.5q-186 0 -379 70l18 180q186 -92 357 -92q213 0 282 151q33 68 35 205q0 51 2 84q-115 -168 -334 -168 q-199 0 -319.5 137.5t-120.5 360.5zM276 498q0 -150 78 -246t199 -96q127 0 210 98t83 252q0 147 -82 250.5t-201 103.5q-127 0 -207 -100t-80 -262z" />
<glyph unicode="h" horiz-adv-x="1161" d="M143 0v1475h187v-478q0 -109 -6 -157q106 180 333 180q254 0 338 -215q37 -96 37 -279v-526h-186v434q0 197 -19 262q-43 166 -209 166q-92 0 -164.5 -55t-101.5 -150q-23 -70 -22 -260v-397h-187z" />
<glyph unicode="i" horiz-adv-x="468" d="M129 1241v205h203v-205h-203zM141 0v1001h187v-1001h-187z" />
<glyph unicode="j" horiz-adv-x="507" d="M-37 -262q37 -4 49 -4q113 0 146 88q12 31 14 58.5t2 139.5v981h186v-981q0 -131 -4 -175t-20 -95q-27 -82 -97.5 -129t-166.5 -47q-39 0 -109 10v154zM166 1241v205h203v-205h-203z" />
<glyph unicode="k" horiz-adv-x="1060" d="M143 0v1475h187v-707q0 -55 -1 -94t-2 -52.5t-2 -22.5t-1 -15q33 41 86 92l325 325h250l-467 -442l531 -559h-263l-340 369q-14 16 -53 66t-69 81q6 -49 6 -151v-365h-187z" />
<glyph unicode="l" horiz-adv-x="468" d="M141 0v1475h187v-1475h-187z" />
<glyph unicode="m" horiz-adv-x="1728" d="M141 1001h172l11 -161q39 84 122.5 132t192.5 48q227 0 295 -201q100 201 330 201q115 0 195.5 -56.5t113.5 -160.5q27 -86 26 -277v-526h-186v492q0 174 -16 231q-39 139 -172 139q-82 0 -146.5 -57t-89.5 -150q-18 -63 -18 -231v-424h-187v514q0 164 -14 211 q-39 137 -166 137q-76 0 -140.5 -49t-94.5 -131q-29 -76 -29 -240v-442h-186v565q-1 190 -13 436z" />
<glyph unicode="n" horiz-adv-x="1169" d="M141 1001h174l9 -157q119 176 344 176q131 0 221 -63.5t125 -180.5q27 -82 26 -309v-467h-186v451q0 188 -16 247q-45 164 -211 164q-92 0 -164 -56t-101 -151q-23 -78 -22 -288v-367h-186v496q-1 255 -13 505z" />
<glyph unicode="o" horiz-adv-x="1185" d="M80 498q0 229 144.5 379.5t365.5 150.5q229 0 372.5 -149.5t143.5 -386.5q0 -225 -145.5 -372t-370.5 -147q-219 0 -364.5 150t-145.5 375zM276 500q0 -168 89.5 -273.5t228.5 -105.5q137 0 226 105.5t89 265.5q0 172 -88 280.5t-227 108.5t-228.5 -107.5t-89.5 -273.5z " />
<glyph unicode="p" horiz-adv-x="1189" d="M141 1001h176l13 -176q117 195 348 195q193 0 311.5 -139.5t118.5 -366.5q0 -238 -120 -383t-314 -145q-238 0 -344 196l2 -32q8 -115 8 -160v-408h-186v981q-1 227 -13 438zM340 500q0 -152 84 -254.5t209 -102.5q119 0 198.5 102.5t79.5 256.5q0 160 -74.5 260 t-195.5 100q-131 0 -216 -102t-85 -260z" />
<glyph unicode="q" horiz-adv-x="1183" d="M78 496q0 238 122 381t320 143q119 0 209 -54.5t135 -152.5q-6 29 -6 64q0 53 -4 106q0 8 2 18h180v-1419h-186v434q0 104 10 158q-113 -188 -346 -188q-201 0 -318.5 138.5t-117.5 371.5zM274 499.5q0 -157.5 79 -257t204 -99.5t208 101.5t83 255t-81 258t-200 104.5 q-129 0 -211 -102.5t-82 -260z" />
<glyph unicode="r" horiz-adv-x="737" d="M141 1001h172l11 -178q88 193 284 193q51 0 101 -15v-170q-47 18 -88 19q-90 0 -159 -55.5t-100 -153.5q-23 -68 -22 -248v-393h-186v610q-1 110 -13 391z" />
<glyph unicode="s" horiz-adv-x="774" d="M72 729q0 131 95 211t253 80q111 0 233 -41l-14 -158q-102 51 -203 51q-76 0 -122 -33.5t-46 -90.5q0 -78 140 -146l75 -37q123 -59 174.5 -121.5t51.5 -156.5q0 -137 -100.5 -221t-264.5 -84q-137 0 -260 57v166q137 -66 235 -66q84 0 138.5 37t54.5 94.5t-49 94.5 q-23 16 -84 47l-78 39q-109 55 -156 98q-73 74 -73 180z" />
<glyph unicode="t" horiz-adv-x="751" d="M-6 856v145h231v226l187 63v-289h264v-145h-264v-397q0 -147 10 -197q10 -55 51 -86t102 -31q53 0 121 31v-160q-94 -29 -172 -28q-190 0 -260 131q-39 76 -39 284v453h-231z" />
<glyph unicode="u" horiz-adv-x="1159" d="M129 471v530h186v-464q0 -199 27 -269q51 -135 195 -135q160 0 239 158q27 55 34 102t7 168v440h187v-630q0 -154 12 -371h-170l-10 156q-121 -170 -336 -170q-111 0 -196 47t-126 133q-49 100 -49 305z" />
<glyph unicode="v" horiz-adv-x="966" d="M12 1001h201l205 -577q66 -180 74 -250q8 53 18 84l25 76l235 667h184l-360 -1001h-213z" />
<glyph unicode="w" horiz-adv-x="1622" d="M12 1001h203l164 -538q63 -213 76 -295l8 35q16 70 49 174l197 624h217l182 -550q41 -121 78 -283q16 104 71 289l168 544h185l-320 -1001h-215l-172 514q-61 186 -92 328q-37 -158 -90 -324l-166 -518h-213z" />
<glyph unicode="x" horiz-adv-x="972" d="M12 0l359 526l-332 475h227l164 -247q49 -76 66 -125q12 39 67 127l156 245h205l-320 -475l357 -526h-230l-186 289q-49 78 -66 121q-8 -27 -22 -56q-2 -4 -13.5 -20.5t-25.5 -40.5l-189 -293h-217z" />
<glyph unicode="y" horiz-adv-x="964" d="M12 1001h201l223 -632q49 -141 53 -207q10 59 15 76l28 84l236 679h184l-356 -991q-80 -227 -143 -307q-94 -127 -265 -127q-43 0 -114 14l10 152q47 -18 88 -18q84 0 133 55q61 74 92 180z" />
<glyph unicode="z" horiz-adv-x="972" d="M74 0v152l473 581q76 90 94 109l18 18q-61 -4 -143 -4h-420v145h768v-155l-483 -590q-47 -55 -80 -90q-6 -10 -25 -31q39 10 156 10h455v-145h-813z" />
<glyph unicode="{" horiz-adv-x="1009" d="M281 463v131q115 31 114 188v408q0 166 90 231q41 31 92.5 42.5t155.5 11.5h33v-134q-121 0 -158 -30.5t-37 -136.5v-402q0 -100 -25.5 -151.5t-92.5 -92.5q66 -41 92 -95t26 -152v-396q0 -109 37 -140.5t158 -29.5v-133h-35h-55q-143 0 -212 73t-69 226v389 q0 90 -25.5 134.5t-88.5 58.5z" />
<glyph unicode="|" horiz-adv-x="1024" d="M420 -342v1708h184v-1708h-184z" />
<glyph unicode="}" horiz-adv-x="1009" d="M244 -285q121 0 157.5 31t36.5 137v402q0 100 25.5 151t93.5 92q-66 41 -92.5 95.5t-26.5 152.5v395q0 109 -36.5 140.5t-157.5 29.5v134h35h55q143 0 211.5 -73t68.5 -226v-390q0 -90 26 -134t89 -58v-131q-115 -31 -115 -189v-407q0 -166 -90 -232q-41 -31 -92 -42 t-156 -11h-32v133z" />
<glyph unicode="~" horiz-adv-x="1366" d="M188 1249q47 98 76 135q84 115 213 115q74 0 225 -65q137 -61 192.5 -61.5t91.5 27t83 103.5l109 -63q-61 -125 -125 -178q-86 -66 -183 -66q-66 0 -288 94q-68 31 -119 31t-89 -32t-79 -109z" />
<glyph unicode="&#xa1;" horiz-adv-x="800" d="M242 -365l32 986h168l25 -986h-225zM252 791v210h211v-210h-211z" />
<glyph unicode="&#xa2;" d="M186 694q0 211 123 349.5t330 160.5v158h104v-158q109 -12 175 -37l-13 -163q-66 37 -162 43v-705q100 8 183 59l16 -168q-90 -43 -199 -49v-164h-104v164q-211 20 -332 157.5t-121 352.5zM385 700q0 -135 66.5 -227t187.5 -123v688q-121 -35 -187.5 -122t-66.5 -216z " />
<glyph unicode="&#xa3;" d="M125 0v162h182v502h-164v108h162v47q0 156 17.5 236t66.5 149q57 82 156.5 127t220.5 45t240 -39l-17 -170q-121 49 -203 50q-98 0 -169.5 -50.5t-98.5 -138.5q-23 -74 -22 -219v-37h317v-108h-311v-502h481v-162h-858z" />
<glyph unicode="&#xa4;" d="M66 993l88 88l161 -159q115 80 236 79q125 0 233 -77l162 157l86 -88l-160 -157q80 -115 80 -232q0 -121 -78 -229l162 -160l-88 -88l-160 160q-111 -80 -235 -80q-117 0 -236 78l-161 -158l-86 86l157 160q-78 113 -77.5 231.5t79.5 229.5zM295 604.5 q0 -106.5 74.5 -181.5t181 -75t181.5 75t75 181q0 104 -75 180t-177 76q-109 0 -184.5 -74.5t-75.5 -181z" />
<glyph unicode="&#xa5;" d="M10 1366h242l262 -514q31 -59 43 -100q16 47 39 96l262 518h234l-267 -479h203v-109h-264l-92 -166h336v-108h-355v-504h-194v504h-365v108h342l-94 166h-268v109h207z" />
<glyph unicode="&#xa6;" horiz-adv-x="1024" d="M420 313h184v-655h-184v655zM420 676v690h184v-690h-184z" />
<glyph unicode="&#xa7;" d="M109 559q0 111 63 199q41 59 139 96q-90 47 -127 98q-59 78 -59 185q0 158 130 257t335 99q170 0 311 -43l-18 -170q-152 57 -293 57q-131 0 -209 -53t-78 -141q0 -72 51.5 -121t192.5 -107l143 -59q137 -57 201 -113q100 -88 100 -227q0 -190 -205 -295 q96 -47 138.5 -111.5t42.5 -160.5q0 -174 -141.5 -279.5t-376.5 -105.5q-180 0 -334 53l16 180q172 -72 328 -71q145 0 229 55t84 153q0 76 -50 123t-190 105l-118 49q-145 59 -203 113q-102 96 -102 235zM260 598q0 -106 113 -174q63 -39 159 -76l187 -74q111 94 110 205 q0 80 -50 129t-201 115l-201 88q-117 -102 -117 -213z" />
<glyph unicode="&#xa8;" horiz-adv-x="1024" d="M238 1202v199h178v-199h-178zM608 1202v199h178v-199h-178z" />
<glyph unicode="&#xa9;" horiz-adv-x="1607" d="M98 682q0 299 208 505t509 206q285 0 489.5 -209t204.5 -500q0 -295 -205.5 -503t-498.5 -208q-291 0 -499 209t-208 500zM209 682q0 -250 175 -429t421 -179t420 178t174 430q0 250 -173 430t-413 180q-254 0 -429 -177t-175 -433zM416 686q0 174 123 283.5t315 109.5 q111 0 197 -37l-13 -120q-92 49 -178 49q-133 0 -218 -78t-85 -203t88 -207t221 -82q84 0 183 37l8 -123q-92 -29 -189 -28q-207 0 -329.5 108.5t-122.5 290.5z" />
<glyph unicode="&#xaa;" horiz-adv-x="727" d="M86 952q0 96 88 149.5t248 53.5q41 0 82 -4q-2 131 -150 131q-96 0 -192 -63l-6 116q106 57 219 58q188 0 239 -127q20 -53 21 -166v-35q-2 -23 -2 -72q0 -139 8 -219h-123q-2 29 -2 53v29q-76 -90 -203 -90q-102 0 -164.5 51t-62.5 135zM106 573v97h535v-97h-535z M225 956q0 -39 32 -62.5t83 -23.5q106 0 149 82q16 33 17 103q-20 4 -53 4q-228 -1 -228 -103z" />
<glyph unicode="&#xab;" horiz-adv-x="1095" d="M109 506l274 397h178l-254 -397l258 -406h-174zM506 506l274 397h178l-253 -397l258 -406h-175z" />
<glyph unicode="&#xac;" horiz-adv-x="1024" d="M68 375v172h886v-547h-184v375h-702z" />
<glyph unicode="&#xad;" horiz-adv-x="514" d="M0 428v154h514v-154h-514z" />
<glyph unicode="&#xae;" horiz-adv-x="1607" d="M98 682q0 299 208 505t509 206q285 0 489.5 -209t204.5 -500q0 -295 -205.5 -503t-498.5 -208q-291 0 -499 209t-208 500zM209 682q0 -250 175 -429t421 -179t420 178t174 430q0 250 -173 430t-413 180q-254 0 -429 -177t-175 -433zM543 293v780h205q125 0 188 -20.5 t102 -72.5t39 -118q0 -143 -155 -182q47 -25 82 -96l145 -291h-154l-106 233q-33 70 -59.5 88.5t-94.5 18.5h-59v-340h-133zM676 743h65q106 0 152.5 26t46.5 85q0 57 -44 83t-144 26h-76v-220z" />
<glyph unicode="&#xaf;" horiz-adv-x="1024" d="M221 1239v117h582v-117h-582z" />
<glyph unicode="&#xb0;" horiz-adv-x="768" d="M86 1206q0 117 88 202t209 85q125 0 212 -85t87 -206t-87 -207t-210 -86q-125 0 -212 86t-87 211zM203 1204q0 -78 52 -130t130 -52q74 0 127 53t53 125q0 76 -53 128t-129 52q-74 0 -127 -52t-53 -124z" />
<glyph unicode="&#xb1;" d="M80 117v149h942v-149h-942zM80 745v150h395v381h150v-381h397v-150h-397v-383h-150v383h-395z" />
<glyph unicode="&#xb2;" horiz-adv-x="507" d="M55 819v94q272 217 273 316q0 35 -31 57.5t-78 22.5q-61 0 -139 -45l-12 90q90 35 165 35q90 0 145.5 -44.5t55.5 -115.5q0 -88 -131 -219q-53 -53 -127 -111h270v-80h-391z" />
<glyph unicode="&#xb3;" horiz-adv-x="507" d="M55 838l4 90q88 -35 150 -35q53 0 88 24.5t35 63.5q0 90 -164 90h-35v82h31q166 0 166 84q0 33 -32 53.5t-79 20.5q-61 0 -139 -33l-8 86q80 27 151 27q98 0 153.5 -40t55.5 -112q0 -86 -100 -127q106 -43 106 -137q0 -74 -60.5 -118t-162.5 -44q-86 0 -160 25z" />
<glyph unicode="&#xb4;" horiz-adv-x="1024" d="M397 1169l168 281h205l-242 -281h-131z" />
<glyph unicode="&#xb5;" horiz-adv-x="1024" d="M82 -346v1329h184v-545q0 -106 15.5 -162.5t58.5 -95.5q66 -66 168 -65q111 0 182 88q66 84 66 250v530h184v-983h-184v158q-45 -96 -104.5 -139.5t-147.5 -43.5q-150 0 -238 144v-465h-184z" />
<glyph unicode="&#xb6;" d="M47 981q0 106 43 192.5t119 133.5q98 59 274 59h545v-143h-104v-1641h-158v1641h-182v-1641h-158v1026q-178 0 -278.5 98.5t-100.5 274.5z" />
<glyph unicode="&#xb7;" horiz-adv-x="546" d="M164 395v219h219v-219h-219z" />
<glyph unicode="&#xb8;" horiz-adv-x="1024" d="M303 -369l35 70q63 -29 133 -29q47 0 77 20.5t30 55.5q0 33 -27 54.5t-68 21.5q-14 0 -71 -14l-33 32l98 158h82l-67 -111q49 10 73 11q70 0 113 -39t43 -101q0 -72 -65.5 -121t-163.5 -49q-101 0 -189 41z" />
<glyph unicode="&#xb9;" horiz-adv-x="507" d="M94 1264l154 118h90v-563h-100v340v29v35v47q-8 -8 -21 -17l-63 -53z" />
<glyph unicode="&#xba;" horiz-adv-x="833" d="M86 1071q0 139 93 230.5t237 91.5q147 0 239.5 -90.5t92.5 -235.5q0 -135 -94.5 -224t-238 -89t-236.5 90t-93 227zM106 573v97h621v-97h-621zM225 1071q0 -94 54.5 -154.5t138.5 -60.5q82 0 136 60.5t54 152.5q0 96 -53 158.5t-137 62.5t-138.5 -61.5t-54.5 -157.5z" />
<glyph unicode="&#xbb;" horiz-adv-x="1095" d="M131 100l258 406l-254 397h178l275 -397l-283 -406h-174zM528 100l260 406l-253 397h176l274 -397l-280 -406h-177z" />
<glyph unicode="&#xbc;" horiz-adv-x="1765" d="M147 1190l207 176h125v-823h-145v495v140l-103 -91zM449 -66l745 1498h121l-748 -1498h-118zM1098 172v115l319 534h187v-520h102v-129h-102v-172h-146v172h-360zM1260 301h198l4 293q0 10 1 27.5t3 40.5l-151 -267z" />
<glyph unicode="&#xbd;" horiz-adv-x="1765" d="M147 1190l207 176h125v-823h-145v495v140l-103 -91zM449 -66l745 1498h121l-748 -1498h-118zM1133 0v145q356 309 356 449q0 45 -38 75.5t-95 30.5q-82 0 -191 -65l-16 143q127 53 225 53q119 0 195 -65.5t76 -167.5q0 -182 -328 -469h22h322v-129h-528z" />
<glyph unicode="&#xbe;" horiz-adv-x="1765" d="M94 571l8 144q121 -53 201 -53q68 0 111 33.5t43 86.5q0 125 -205 125q-25 0 -55 -4v133h45q213 0 213 115q0 45 -38 72.5t-98 27.5q-84 0 -192 -51l-10 137q111 39 209 39q131 0 204.5 -59.5t73.5 -165.5q0 -119 -123 -178q131 -68 131 -201q0 -109 -81.5 -174.5 t-219.5 -65.5q-106 0 -217 39zM449 -66l745 1498h121l-748 -1498h-118zM1098 172v115l319 534h187v-520h102v-129h-102v-172h-146v172h-360zM1260 301h198l4 293q0 10 1 27.5t3 40.5l-151 -267z" />
<glyph unicode="&#xbf;" horiz-adv-x="1042" d="M92 -35q0 88 40 167t151 208q78 90 99 138t21 143h177q0 -139 -31 -208t-152 -204q-102 -119 -102 -221q0 -90 65.5 -145.5t174.5 -55.5q143 0 294 76l15 -191q-172 -59 -332 -59q-186 0 -303 98t-117 254zM385 786v215h209v-215h-209z" />
<glyph unicode="&#xc0;" horiz-adv-x="1398" d="M10 0l582 1366h205l592 -1366h-220l-143 346h-664l-141 -346h-211zM367 1767h225l180 -266h-141zM424 512h534l-157 381q-94 223 -111 305q-25 -82 -115 -309z" />
<glyph unicode="&#xc1;" horiz-adv-x="1398" d="M10 0l582 1366h205l592 -1366h-220l-143 346h-664l-141 -346h-211zM424 512h534l-157 381q-94 223 -111 305q-25 -82 -115 -309zM647 1501l178 266h228l-265 -266h-141z" />
<glyph unicode="&#xc2;" horiz-adv-x="1398" d="M10 0l582 1366h205l592 -1366h-220l-143 346h-664l-141 -346h-211zM389 1501l225 266h187l225 -266h-172l-147 170l-146 -170h-172zM424 512h534l-157 381q-94 223 -111 305q-25 -82 -115 -309z" />
<glyph unicode="&#xc3;" horiz-adv-x="1398" d="M10 0l582 1366h205l592 -1366h-220l-143 346h-664l-141 -346h-211zM395 1518q39 215 203 215q70 0 199 -58q53 -25 82 -24q76 0 96 90h96q0 -4 -1 -11.5t-3 -9.5q-10 -57 -17.5 -76.5t-27.5 -46.5q-53 -76 -143 -75q-39 0 -70 9t-123 48q-74 31 -108 31 q-29 0 -52.5 -25.5t-33.5 -66.5h-97zM424 512h534l-157 381q-94 223 -111 305q-25 -82 -115 -309z" />
<glyph unicode="&#xc4;" horiz-adv-x="1398" d="M10 0l582 1366h205l592 -1366h-220l-143 346h-664l-141 -346h-211zM403 1528v198h187v-198h-187zM424 512h534l-157 381q-94 223 -111 305q-25 -82 -115 -309zM801 1528v198h186v-198h-186z" />
<glyph unicode="&#xc5;" horiz-adv-x="1398" d="M10 0l582 1366h205l592 -1366h-220l-143 346h-664l-141 -346h-211zM424 512h534l-157 381q-94 223 -111 305q-25 -82 -115 -309zM498 1651q0 84 60 143t147 59q82 0 141 -60t59 -142q0 -84 -59.5 -144.5t-143.5 -60.5q-86 0 -145 60.5t-59 144.5zM602 1651 q0 -41 28.5 -71t69.5 -30t70 30t29 71q0 39 -29 68.5t-68 29.5q-41 0 -70.5 -28.5t-29.5 -69.5z" />
<glyph unicode="&#xc6;" horiz-adv-x="1847" d="M12 0l824 1366h860v-166h-549l31 -412h485v-165h-473l31 -457h499v-166h-680l-26 350h-576l-207 -350h-219zM532 516h469l-45 709z" />
<glyph unicode="&#xc7;" horiz-adv-x="1189" d="M98 690q0 303 200 494.5t517 191.5q180 0 311 -61l-16 -185q-141 80 -285 80q-229 0 -373.5 -144t-144.5 -372q0 -229 149.5 -379.5t377.5 -150.5q137 0 292 61l15 -188q-139 -47 -295 -47q-33 0 -60 2l-61 -103q51 10 72 11q68 0 112.5 -40t44.5 -102q0 -78 -65.5 -127 t-169.5 -49q-98 0 -189 41l35 72q66 -27 133 -27q47 0 77 21.5t30 56.5q0 33 -27.5 55.5t-66.5 22.5q-20 0 -72 -14l-33 32l96 156q-213 31 -348 135q-256 199 -256 557z" />
<glyph unicode="&#xc8;" horiz-adv-x="1079" d="M176 0v1366h760v-166h-565v-403h524v-166h-524v-465h581v-166h-776zM256 1767h225l181 -266h-142z" />
<glyph unicode="&#xc9;" horiz-adv-x="1079" d="M176 0v1366h760v-166h-565v-403h524v-166h-524v-465h581v-166h-776zM467 1501l178 266h227l-264 -266h-141z" />
<glyph unicode="&#xca;" horiz-adv-x="1079" d="M176 0v1366h760v-166h-565v-403h524v-166h-524v-465h581v-166h-776zM246 1501l225 266h186l226 -266h-172l-148 170l-145 -170h-172z" />
<glyph unicode="&#xcb;" horiz-adv-x="1079" d="M176 0v1366h760v-166h-565v-403h524v-166h-524v-465h581v-166h-776zM272 1528v198h187v-198h-187zM670 1528v198h186v-198h-186z" />
<glyph unicode="&#xcc;" horiz-adv-x="573" d="M-4 1767h219l166 -266h-141zM190 0v1366h195v-1366h-195z" />
<glyph unicode="&#xcd;" horiz-adv-x="573" d="M190 0v1366h195v-1366h-195zM221 1501l166 266h219l-244 -266h-141z" />
<glyph unicode="&#xce;" horiz-adv-x="573" d="M10 1501l191 266h186l191 -266h-164l-119 176l-121 -176h-164zM190 0v1366h195v-1366h-195z" />
<glyph unicode="&#xcf;" horiz-adv-x="573" d="M63 1528v198h177v-198h-177zM190 0v1366h195v-1366h-195zM348 1528v198h176v-198h-176z" />
<glyph unicode="&#xd0;" horiz-adv-x="1411" d="M39 629v164h137v573h281q242 0 362 -33q219 -59 356.5 -241.5t137.5 -413.5q0 -219 -125 -391t-334 -242q-141 -45 -369 -45h-309v629h-137zM369 168h102q231 0 346 49q135 57 212 181t77 286q0 164 -90 296t-236 183q-98 35 -307 35h-104v-405h354v-164h-354v-461z" />
<glyph unicode="&#xd1;" horiz-adv-x="1443" d="M176 0v1366h266l465 -805q137 -240 187 -391q-20 199 -21 539v657h195v-1366h-252l-432 741q-186 319 -230 469q16 -186 17 -514v-696h-195zM438 1518q39 215 203 215q70 0 199 -58q53 -25 82 -24q76 0 96 90h96q0 -4 -1 -11.5t-3 -9.5q-10 -57 -17.5 -76.5t-27.5 -46.5 q-53 -76 -143 -75q-39 0 -70 9t-123 48q-74 31 -108 31q-29 0 -52.5 -25.5t-33.5 -66.5h-97z" />
<glyph unicode="&#xd2;" horiz-adv-x="1517" d="M98 680q0 156 51.5 298t141.5 239q166 176 477 176q297 0 474 -193.5t177 -517.5q0 -305 -164 -504q-170 -205 -493 -205q-307 0 -481 193q-84 92 -133.5 230.5t-49.5 283.5zM307 684q0 -246 127 -401.5t325.5 -155.5t324.5 154.5t126 396.5q0 248 -123.5 404.5 t-320.5 156.5q-209 0 -334 -150.5t-125 -404.5zM453 1767h225l180 -266h-141z" />
<glyph unicode="&#xd3;" horiz-adv-x="1517" d="M98 680q0 156 51.5 298t141.5 239q166 176 477 176q297 0 474 -193.5t177 -517.5q0 -305 -164 -504q-170 -205 -493 -205q-307 0 -481 193q-84 92 -133.5 230.5t-49.5 283.5zM307 684q0 -246 127 -401.5t325.5 -155.5t324.5 154.5t126 396.5q0 248 -123.5 404.5 t-320.5 156.5q-209 0 -334 -150.5t-125 -404.5zM692 1501l178 266h228l-264 -266h-142z" />
<glyph unicode="&#xd4;" horiz-adv-x="1517" d="M98 680q0 156 51.5 298t141.5 239q166 176 477 176q297 0 474 -193.5t177 -517.5q0 -305 -164 -504q-170 -205 -493 -205q-307 0 -481 193q-84 92 -133.5 230.5t-49.5 283.5zM307 684q0 -246 127 -401.5t325.5 -155.5t324.5 154.5t126 396.5q0 248 -123.5 404.5 t-320.5 156.5q-209 0 -334 -150.5t-125 -404.5zM461 1501l225 266h186l226 -266h-172l-148 170l-145 -170h-172z" />
<glyph unicode="&#xd5;" horiz-adv-x="1517" d="M98 680q0 156 51.5 298t141.5 239q166 176 477 176q297 0 474 -193.5t177 -517.5q0 -305 -164 -504q-170 -205 -493 -205q-307 0 -481 193q-84 92 -133.5 230.5t-49.5 283.5zM307 684q0 -246 127 -401.5t325.5 -155.5t324.5 154.5t126 396.5q0 248 -123.5 404.5 t-320.5 156.5q-209 0 -334 -150.5t-125 -404.5zM455 1518q39 215 202 215q70 0 199 -58q53 -25 82 -24q76 0 96 90h96q0 -4 -1 -11.5t-3 -9.5q-10 -57 -17 -76.5t-28 -46.5q-53 -76 -143 -75q-39 0 -69.5 9t-123.5 48q-74 31 -108 31q-29 0 -52.5 -25.5t-33.5 -66.5h-96z " />
<glyph unicode="&#xd6;" horiz-adv-x="1517" d="M98 680q0 156 51.5 298t141.5 239q166 176 477 176q297 0 474 -193.5t177 -517.5q0 -305 -164 -504q-170 -205 -493 -205q-307 0 -481 193q-84 92 -133.5 230.5t-49.5 283.5zM307 684q0 -246 127 -401.5t325.5 -155.5t324.5 154.5t126 396.5q0 248 -123.5 404.5 t-320.5 156.5q-209 0 -334 -150.5t-125 -404.5zM481 1528v198h187v-198h-187zM879 1528v198h186v-198h-186z" />
<glyph unicode="&#xd7;" d="M145 397l299 299l-299 299l107 107l299 -299l299 299l106 -107l-299 -299l299 -299l-106 -106l-299 299l-299 -299z" />
<glyph unicode="&#xd8;" horiz-adv-x="1517" d="M98 686q0 150 51.5 292t141.5 239q166 176 465 176q246 0 420 -129l127 145l104 -84l-137 -158q150 -207 149 -485q0 -324 -177 -516.5t-476 -192.5q-260 0 -426 136l-127 -144l-102 86l135 156q-148 203 -148 479zM307 688q0 -190 76 -330l664 768q-109 113 -293 113 q-199 0 -323 -153.5t-124 -397.5zM467 244q135 -117 293 -117q199 0 324.5 153.5t125.5 395.5q0 176 -77 344z" />
<glyph unicode="&#xd9;" horiz-adv-x="1409" d="M176 623v743h195v-715q0 -248 49 -346q39 -78 116.5 -122t176.5 -44q225 0 297 207q29 80 28 295v725h195v-770q0 -156 -17.5 -244t-64.5 -159q-137 -219 -444 -220q-170 0 -295 73t-183 208q-53 119 -53 369zM399 1767h226l180 -266h-141z" />
<glyph unicode="&#xda;" horiz-adv-x="1409" d="M176 623v743h195v-715q0 -248 49 -346q39 -78 116.5 -122t176.5 -44q225 0 297 207q29 80 28 295v725h195v-770q0 -156 -17.5 -244t-64.5 -159q-137 -219 -444 -220q-170 0 -295 73t-183 208q-53 119 -53 369zM631 1501l178 266h227l-264 -266h-141z" />
<glyph unicode="&#xdb;" horiz-adv-x="1409" d="M176 623v743h195v-715q0 -248 49 -346q39 -78 116.5 -122t176.5 -44q225 0 297 207q29 80 28 295v725h195v-770q0 -156 -17.5 -244t-64.5 -159q-137 -219 -444 -220q-170 0 -295 73t-183 208q-53 119 -53 369zM399 1501l226 266h186l225 -266h-172l-147 170l-146 -170 h-172z" />
<glyph unicode="&#xdc;" horiz-adv-x="1409" d="M176 623v743h195v-715q0 -248 49 -346q39 -78 116.5 -122t176.5 -44q225 0 297 207q29 80 28 295v725h195v-770q0 -156 -17.5 -244t-64.5 -159q-137 -219 -444 -220q-170 0 -295 73t-183 208q-53 119 -53 369zM426 1528v198h186v-198h-186zM823 1528v198h187v-198h-187z " />
<glyph unicode="&#xdd;" horiz-adv-x="1288" d="M10 1366h242l338 -512q45 -66 59 -102q16 37 56 96l342 518h231l-533 -786v-580h-194v573zM565 1501l178 266h228l-264 -266h-142z" />
<glyph unicode="&#xde;" horiz-adv-x="1091" d="M176 0v1366h197v-192h76q244 0 346 -37q115 -41 181 -141.5t66 -229.5t-64.5 -227.5t-178.5 -143.5q-100 -41 -318 -41h-108v-354h-197zM373 520h106q170 0 242 39q115 66 115 207q0 168 -177 223q-66 18 -204 19h-82v-488z" />
<glyph unicode="&#xdf;" horiz-adv-x="1181" d="M141 0v811q0 195 9.5 275.5t37.5 148.5q51 119 160 185.5t254 66.5q184 0 299 -108.5t115 -282.5q0 -115 -61.5 -198t-172.5 -118q131 -6 217 -112.5t86 -261.5q0 -180 -116 -302q-119 -119 -332 -118q-61 0 -170 14v164q82 -31 149 -31q121 0 197 77t76 202 q0 139 -86 212.5t-248 73.5h-37v152h33q129 0 198.5 63.5t69.5 182.5q0 109 -62.5 176t-162.5 67q-78 0 -140.5 -44t-91.5 -119q-35 -88 -34 -349v-827h-187z" />
<glyph unicode="&#xe0;" horiz-adv-x="1083" d="M88 287q0 158 136 243.5t388 85.5q43 0 140 -6q-2 252 -250 252q-150 0 -295 -98l-10 164q160 92 335 92q270 0 359 -184q41 -84 41 -287v-209q0 -211 10 -340h-170q-2 39 -2 80q0 31 2 92q-111 -186 -336 -186q-158 0 -253 82t-95 219zM242 1450h204l168 -281h-131z M285 289q0 -70 54 -113t138 -43q82 0 148.5 39t99.5 107q31 63 31 194q-51 6 -101 6q-370 0 -370 -190z" />
<glyph unicode="&#xe1;" horiz-adv-x="1083" d="M88 287q0 158 136 243.5t388 85.5q43 0 140 -6q-2 252 -250 252q-150 0 -295 -98l-10 164q160 92 335 92q270 0 359 -184q41 -84 41 -287v-209q0 -211 10 -340h-170q-2 39 -2 80q0 31 2 92q-111 -186 -336 -186q-158 0 -253 82t-95 219zM285 289q0 -70 54 -113t138 -43 q82 0 148.5 39t99.5 107q31 63 31 194q-51 6 -101 6q-370 0 -370 -190zM473 1169l168 281h205l-242 -281h-131z" />
<glyph unicode="&#xe2;" horiz-adv-x="1083" d="M88 287q0 158 136 243.5t388 85.5q43 0 140 -6q-2 252 -250 252q-150 0 -295 -98l-10 164q160 92 335 92q270 0 359 -184q41 -84 41 -287v-209q0 -211 10 -340h-170q-2 39 -2 80q0 31 2 92q-111 -186 -336 -186q-158 0 -253 82t-95 219zM254 1169l211 281h182l211 -281 h-156l-145 189l-147 -189h-156zM285 289q0 -70 54 -113t138 -43q82 0 148.5 39t99.5 107q31 63 31 194q-51 6 -101 6q-370 0 -370 -190z" />
<glyph unicode="&#xe3;" horiz-adv-x="1083" d="M88 287q0 158 136 243.5t388 85.5q43 0 140 -6q-2 252 -250 252q-150 0 -295 -98l-10 164q160 92 335 92q270 0 359 -184q41 -84 41 -287v-209q0 -211 10 -340h-170q-2 39 -2 80q0 31 2 92q-111 -186 -336 -186q-158 0 -253 82t-95 219zM272 1198q29 205 189 205 q33 0 56.5 -7t115.5 -46q45 -20 72 -21q63 0 75 78h97q-14 -96 -59.5 -150.5t-115.5 -54.5q-49 0 -215 72q-18 8 -43 8q-59 0 -75 -84h-97zM285 289q0 -70 54 -113t138 -43q82 0 148.5 39t99.5 107q31 63 31 194q-51 6 -101 6q-370 0 -370 -190z" />
<glyph unicode="&#xe4;" horiz-adv-x="1083" d="M88 287q0 158 136 243.5t388 85.5q43 0 140 -6q-2 252 -250 252q-150 0 -295 -98l-10 164q160 92 335 92q270 0 359 -184q41 -84 41 -287v-209q0 -211 10 -340h-170q-2 39 -2 80q0 31 2 92q-111 -186 -336 -186q-158 0 -253 82t-95 219zM285 289q0 -70 54 -113t138 -43 q82 0 148.5 39t99.5 107q31 63 31 194q-51 6 -101 6q-370 0 -370 -190zM295 1202v199h178v-199h-178zM666 1202v199h178v-199h-178z" />
<glyph unicode="&#xe5;" horiz-adv-x="1083" d="M88 287q0 158 136 243.5t388 85.5q43 0 140 -6q-2 252 -250 252q-150 0 -295 -98l-10 164q160 92 335 92q270 0 359 -184q41 -84 41 -287v-209q0 -211 10 -340h-170q-2 39 -2 80q0 31 2 92q-111 -186 -336 -186q-158 0 -253 82t-95 219zM285 289q0 -70 54 -113t138 -43 q82 0 148.5 39t99.5 107q31 63 31 194q-51 6 -101 6q-370 0 -370 -190zM348 1319q0 82 59.5 139.5t143.5 57.5q78 0 136 -58.5t58 -140.5t-58 -140.5t-140 -58.5t-140.5 58.5t-58.5 142.5zM449 1317q0 -41 28.5 -69.5t69.5 -28.5q39 0 68.5 29.5t29.5 68.5t-28.5 68.5 t-67.5 29.5q-41 0 -70.5 -28.5t-29.5 -69.5z" />
<glyph unicode="&#xe6;" horiz-adv-x="1751" d="M88 293q0 178 180 266q125 61 379 62h135q-2 94 -39 143q-70 100 -241 100q-156 0 -295 -96v170q168 84 332 84q123 0 215 -47t125 -125q39 80 131 126t213 46q268 0 381 -217q63 -121 65 -344h-708q10 -152 102 -240t242 -88q127 0 264 86v-182q-133 -51 -295 -51 q-186 0 -311 82q-98 68 -115 151q-23 -106 -127.5 -169.5t-255.5 -63.5q-170 0 -273.5 84t-103.5 223zM285 291q0 -70 55 -114t139 -44q127 0 215 98.5t88 241.5h-118q-170 0 -246 -29q-133 -47 -133 -153zM961 606h505q-10 133 -74.5 206t-171 73t-177 -76t-82.5 -203z" />
<glyph unicode="&#xe7;" horiz-adv-x="874" d="M80 500q0 223 142.5 368.5t359.5 145.5q123 0 227 -41l-12 -164q-80 47 -183 47q-150 0 -244 -98.5t-94 -249.5q0 -162 93.5 -262.5t240.5 -100.5q106 0 209 64l15 -170q-104 -51 -240 -51h-37l-59 -97q55 8 75 9q68 0 111 -39t43 -101q0 -72 -65.5 -121t-161.5 -49 q-100 0 -191 41l35 70q66 -29 133 -29q47 0 77 20.5t30 55.5q0 33 -27 54.5t-65 21.5q-25 0 -74 -14l-31 34l94 154q-184 27 -292.5 164t-108.5 338z" />
<glyph unicode="&#xe8;" horiz-adv-x="1069" d="M80 510q0 233 130 375.5t343 142.5q207 0 321.5 -142.5t114.5 -400.5q0 -18 -2 -32h-721q18 -150 108.5 -236t227.5 -86q156 0 311 94v-178q-162 -74 -321 -74q-236 0 -374 145.5t-138 391.5zM256 1450h205l168 -281h-131zM268 598h535q-16 121 -51 172q-72 111 -205 111 q-111 0 -186 -77t-93 -206z" />
<glyph unicode="&#xe9;" horiz-adv-x="1069" d="M80 510q0 233 130 375.5t343 142.5q207 0 321.5 -142.5t114.5 -400.5q0 -18 -2 -32h-721q18 -150 108.5 -236t227.5 -86q156 0 311 94v-178q-162 -74 -321 -74q-236 0 -374 145.5t-138 391.5zM268 598h535q-16 121 -51 172q-72 111 -205 111q-111 0 -186 -77t-93 -206z M494 1169l168 281h204l-241 -281h-131z" />
<glyph unicode="&#xea;" horiz-adv-x="1069" d="M80 510q0 233 130 375.5t343 142.5q207 0 321.5 -142.5t114.5 -400.5q0 -18 -2 -32h-721q18 -150 108.5 -236t227.5 -86q156 0 311 94v-178q-162 -74 -321 -74q-236 0 -374 145.5t-138 391.5zM258 1169l211 281h182l211 -281h-155l-146 189l-147 -189h-156zM268 598h535 q-16 121 -51 172q-72 111 -205 111q-111 0 -186 -77t-93 -206z" />
<glyph unicode="&#xeb;" horiz-adv-x="1069" d="M80 510q0 233 130 375.5t343 142.5q207 0 321.5 -142.5t114.5 -400.5q0 -18 -2 -32h-721q18 -150 108.5 -236t227.5 -86q156 0 311 94v-178q-162 -74 -321 -74q-236 0 -374 145.5t-138 391.5zM268 598h535q-16 121 -51 172q-72 111 -205 111q-111 0 -186 -77t-93 -206z M281 1202v199h178v-199h-178zM651 1202v199h178v-199h-178z" />
<glyph unicode="&#xec;" horiz-adv-x="468" d="M-33 1450h199l153 -281h-131zM143 0v1001h187v-1001h-187z" />
<glyph unicode="&#xed;" horiz-adv-x="468" d="M141 0v1001h187v-1001h-187zM178 1169l154 281h198l-221 -281h-131z" />
<glyph unicode="&#xee;" horiz-adv-x="468" d="M-20 1169l176 281h182l178 -281h-149l-119 195l-119 -195h-149zM141 0v1001h187v-1001h-187z" />
<glyph unicode="&#xef;" horiz-adv-x="468" d="M23 1202v199h167v-199h-167zM143 0v1001h187v-1001h-187zM295 1202v199h168v-199h-168z" />
<glyph unicode="&#xf0;" horiz-adv-x="1185" d="M80 495.5q0 225.5 140 377t351 151.5q90 0 144.5 -20.5t124.5 -79.5q-14 84 -74.5 181t-130.5 142l-221 -143l-64 94l172 113q-88 35 -231 63l37 113q152 -4 334 -86l223 143l76 -90l-193 -125q141 -117 231 -307q106 -215 107 -479q0 -152 -32 -245t-109 -175 q-143 -150 -371 -150q-221 0 -367.5 148.5t-146.5 374zM279 498q0 -166 88 -271.5t227 -105.5q137 0 226 103.5t89 262.5q0 180 -85 285t-232 105q-137 0 -225 -106.5t-88 -272.5z" />
<glyph unicode="&#xf1;" horiz-adv-x="1169" d="M141 1001h174l9 -157q119 176 344 176q131 0 221 -63.5t125 -180.5q27 -82 26 -309v-467h-186v451q0 188 -16 247q-45 164 -211 164q-92 0 -164 -56t-101 -151q-23 -78 -22 -288v-367h-186v496q-1 255 -13 505zM309 1198q29 205 189 205q33 0 56.5 -7t115.5 -46 q45 -20 71 -21q63 0 76 78h96q-14 -96 -59 -150.5t-115 -54.5q-49 0 -215 72q-18 8 -43 8q-59 0 -75 -84h-97z" />
<glyph unicode="&#xf2;" horiz-adv-x="1185" d="M80 498q0 229 144.5 379.5t365.5 150.5q229 0 372.5 -149.5t143.5 -386.5q0 -225 -145.5 -372t-370.5 -147q-219 0 -364.5 150t-145.5 375zM276 500q0 -168 89.5 -273.5t228.5 -105.5q137 0 226 105.5t89 265.5q0 172 -88 280.5t-227 108.5t-228.5 -107.5t-89.5 -273.5z M307 1450h205l168 -281h-131z" />
<glyph unicode="&#xf3;" horiz-adv-x="1185" d="M80 498q0 229 144.5 379.5t365.5 150.5q229 0 372.5 -149.5t143.5 -386.5q0 -225 -145.5 -372t-370.5 -147q-219 0 -364.5 150t-145.5 375zM276 500q0 -168 89.5 -273.5t228.5 -105.5q137 0 226 105.5t89 265.5q0 172 -88 280.5t-227 108.5t-228.5 -107.5t-89.5 -273.5z M539 1169l168 281h204l-241 -281h-131z" />
<glyph unicode="&#xf4;" horiz-adv-x="1185" d="M80 498q0 229 144.5 379.5t365.5 150.5q229 0 372.5 -149.5t143.5 -386.5q0 -225 -145.5 -372t-370.5 -147q-219 0 -364.5 150t-145.5 375zM276 500q0 -168 89.5 -273.5t228.5 -105.5q137 0 226 105.5t89 265.5q0 172 -88 280.5t-227 108.5t-228.5 -107.5t-89.5 -273.5z M311 1169l211 281h183l210 -281h-155l-146 189l-147 -189h-156z" />
<glyph unicode="&#xf5;" horiz-adv-x="1185" d="M80 498q0 229 144.5 379.5t365.5 150.5q229 0 372.5 -149.5t143.5 -386.5q0 -225 -145.5 -372t-370.5 -147q-219 0 -364.5 150t-145.5 375zM276 500q0 -168 89.5 -273.5t228.5 -105.5q137 0 226 105.5t89 265.5q0 172 -88 280.5t-227 108.5t-228.5 -107.5t-89.5 -273.5z M324 1198q29 205 188 205q33 0 56.5 -7t115.5 -46q47 -20 72 -21q63 0 75 78h97q-14 -96 -59.5 -150.5t-114.5 -54.5q-49 0 -215 72q-18 8 -43 8q-59 0 -76 -84h-96z" />
<glyph unicode="&#xf6;" horiz-adv-x="1185" d="M80 498q0 229 144.5 379.5t365.5 150.5q229 0 372.5 -149.5t143.5 -386.5q0 -225 -145.5 -372t-370.5 -147q-219 0 -364.5 150t-145.5 375zM276 500q0 -168 89.5 -273.5t228.5 -105.5q137 0 226 105.5t89 265.5q0 172 -88 280.5t-227 108.5t-228.5 -107.5t-89.5 -273.5z M332 1202v199h178v-199h-178zM702 1202v199h179v-199h-179z" />
<glyph unicode="&#xf7;" d="M80 623v149h942v-149h-942zM453 291v194h194v-194h-194zM453 909v195h194v-195h-194z" />
<glyph unicode="&#xf8;" horiz-adv-x="1185" d="M80 500q0 229 144.5 378.5t365.5 149.5q172 0 305 -94l113 125l94 -80l-115 -129q119 -143 119 -354q0 -229 -145.5 -376t-370.5 -147q-164 0 -303 95l-111 -125l-94 86l115 125q-117 141 -117 346zM276 498q0 -100 48 -211l450 526q-61 68 -180 68q-139 0 -228.5 -107.5 t-89.5 -275.5zM406 193q74 -72 190 -72q135 0 225 107.5t90 269.5q0 123 -53 217z" />
<glyph unicode="&#xf9;" horiz-adv-x="1159" d="M129 471v530h186v-464q0 -199 27 -269q51 -135 195 -135q160 0 239 158q27 55 34 102t7 168v440h187v-630q0 -154 12 -371h-170l-10 156q-121 -170 -336 -170q-111 0 -196 47t-126 133q-49 100 -49 305zM287 1450h205l167 -281h-131z" />
<glyph unicode="&#xfa;" horiz-adv-x="1159" d="M129 471v530h186v-464q0 -199 27 -269q51 -135 195 -135q160 0 239 158q27 55 34 102t7 168v440h187v-630q0 -154 12 -371h-170l-10 156q-121 -170 -336 -170q-111 0 -196 47t-126 133q-49 100 -49 305zM504 1169l168 281h205l-242 -281h-131z" />
<glyph unicode="&#xfb;" horiz-adv-x="1159" d="M129 471v530h186v-464q0 -199 27 -269q51 -135 195 -135q160 0 239 158q27 55 34 102t7 168v440h187v-630q0 -154 12 -371h-170l-10 156q-121 -170 -336 -170q-111 0 -196 47t-126 133q-49 100 -49 305zM279 1169l210 281h183l211 -281h-156l-145 189l-148 -189h-155z " />
<glyph unicode="&#xfc;" horiz-adv-x="1159" d="M129 471v530h186v-464q0 -199 27 -269q51 -135 195 -135q160 0 239 158q27 55 34 102t7 168v440h187v-630q0 -154 12 -371h-170l-10 156q-121 -170 -336 -170q-111 0 -196 47t-126 133q-49 100 -49 305zM305 1202v199h178v-199h-178zM676 1202v199h178v-199h-178z" />
<glyph unicode="&#xfd;" horiz-adv-x="964" d="M12 1001h201l223 -632q49 -141 53 -207q10 59 15 76l28 84l236 679h184l-356 -991q-80 -227 -143 -307q-94 -127 -265 -127q-43 0 -114 14l10 152q47 -18 88 -18q84 0 133 55q61 74 92 180zM416 1169l168 281h204l-241 -281h-131z" />
<glyph unicode="&#xfe;" horiz-adv-x="1187" d="M154 -418v1893h184v-474q0 -84 -12 -176q125 195 350 195q193 0 311.5 -139.5t118.5 -366.5q0 -238 -120 -383t-314 -145q-240 0 -344 196l2 -32q8 -115 8 -160v-408h-184zM338 498q0 -150 84 -252.5t209 -102.5q119 0 198.5 102.5t79.5 256.5q0 160 -74.5 259t-195.5 99 q-131 0 -216 -102t-85 -260z" />
<glyph unicode="&#xff;" horiz-adv-x="964" d="M12 1001h201l223 -632q49 -141 53 -207q10 59 15 76l28 84l236 679h184l-356 -991q-80 -227 -143 -307q-94 -127 -265 -127q-43 0 -114 14l10 152q47 -18 88 -18q84 0 133 55q61 74 92 180zM219 1202v199h178v-199h-178zM590 1202v199h178v-199h-178z" />
<glyph unicode="&#x152;" horiz-adv-x="1855" d="M96 694q0 190 88 343t246 237q102 53 219 72.5t350 19.5h261h450v-166h-549v-407h510v-166h-510v-461h568v-166h-658l-246 4q-330 6 -529.5 195.5t-199.5 494.5zM305 694q0 -168 79 -295t220 -184q66 -27 128.5 -36t199.5 -11q16 0 35 -2v1034q-205 0 -303 -22 q-168 -39 -263.5 -167.5t-95.5 -316.5z" />
<glyph unicode="&#x153;" horiz-adv-x="1851" d="M80 508q0 225 140 373.5t353 148.5q143 0 252 -60.5t144 -160.5q37 106 130 163.5t228 57.5q260 0 377 -215q66 -121 65 -356h-704q12 -154 101 -241t235 -87q143 0 270 92v-184q-137 -66 -309 -66q-152 0 -256.5 59.5t-136.5 162.5q-33 -100 -139.5 -161t-245.5 -61 q-221 0 -362.5 151t-141.5 384zM276 500q0 -162 87.5 -270.5t216.5 -108.5q133 0 219 107.5t86 271.5t-86 273.5t-217 109.5q-135 0 -220.5 -106.5t-85.5 -276.5zM1067 604h498q-2 127 -67.5 203t-172.5 76q-102 0 -175 -78t-83 -201z" />
<glyph unicode="&#x178;" horiz-adv-x="1288" d="M10 1366h242l338 -512q45 -66 59 -102q16 37 56 96l342 518h231l-533 -786v-580h-194v573zM365 1528v198h186v-198h-186zM762 1528v198h186v-198h-186z" />
<glyph unicode="&#x2c6;" horiz-adv-x="1024" d="M209 1169l211 281h182l211 -281h-156l-145 189l-147 -189h-156z" />
<glyph unicode="&#x2dc;" horiz-adv-x="1024" d="M209 1198q29 205 188 205q33 0 56.5 -7t115.5 -46q45 -20 72 -21q63 0 76 78h96q-14 -96 -59 -150.5t-115 -54.5q-49 0 -215 72q-18 8 -43 8q-59 0 -76 -84h-96z" />
<glyph unicode="&#x2000;" horiz-adv-x="925" />
<glyph unicode="&#x2001;" horiz-adv-x="1853" />
<glyph unicode="&#x2002;" horiz-adv-x="925" />
<glyph unicode="&#x2003;" horiz-adv-x="1853" />
<glyph unicode="&#x2004;" horiz-adv-x="616" />
<glyph unicode="&#x2005;" horiz-adv-x="462" />
<glyph unicode="&#x2006;" horiz-adv-x="307" />
<glyph unicode="&#x2007;" horiz-adv-x="307" />
<glyph unicode="&#x2008;" horiz-adv-x="231" />
<glyph unicode="&#x2009;" horiz-adv-x="370" />
<glyph unicode="&#x200a;" horiz-adv-x="102" />
<glyph unicode="&#x2010;" horiz-adv-x="514" d="M0 428v154h514v-154h-514z" />
<glyph unicode="&#x2011;" horiz-adv-x="514" d="M0 428v154h514v-154h-514z" />
<glyph unicode="&#x2012;" horiz-adv-x="514" d="M0 428v154h514v-154h-514z" />
<glyph unicode="&#x2013;" d="M88 428v154h926v-154h-926z" />
<glyph unicode="&#x2014;" horiz-adv-x="1456" d="M0 428v154h1456v-154h-1456z" />
<glyph unicode="&#x2018;" horiz-adv-x="559" d="M123 993l170 482h172l-123 -482h-219z" />
<glyph unicode="&#x2019;" horiz-adv-x="559" d="M96 993l123 482h219l-170 -482h-172z" />
<glyph unicode="&#x201a;" horiz-adv-x="559" d="M96 -262l123 481h219l-170 -481h-172z" />
<glyph unicode="&#x201c;" horiz-adv-x="931" d="M123 993l170 482h172l-123 -482h-219zM496 993l170 482h172l-123 -482h-219z" />
<glyph unicode="&#x201d;" horiz-adv-x="931" d="M96 993l123 482h219l-170 -482h-172zM469 993l121 482h221l-170 -482h-172z" />
<glyph unicode="&#x201e;" horiz-adv-x="931" d="M123 -264l123 483h219l-170 -483h-172zM496 -264l120 483h222l-170 -483h-172z" />
<glyph unicode="&#x2022;" horiz-adv-x="1366" d="M401 692q0 119 83 202t204 83q115 0 198 -84t83 -201t-83 -199.5t-200 -82.5q-119 0 -202 82.5t-83 199.5z" />
<glyph unicode="&#x2026;" horiz-adv-x="1642" d="M164 0v219h219v-219h-219zM711 0v219h219v-219h-219zM1260 0v219h219v-219h-219z" />
<glyph unicode="&#x202f;" horiz-adv-x="370" />
<glyph unicode="&#x2039;" horiz-adv-x="698" d="M109 506l274 397h178l-254 -397l258 -406h-174z" />
<glyph unicode="&#x203a;" horiz-adv-x="698" d="M131 100l258 406l-254 397h178l275 -397l-283 -406h-174z" />
<glyph unicode="&#x205f;" horiz-adv-x="462" />
<glyph unicode="&#x20ac;" horiz-adv-x="1339" d="M86 547l35 108h98v68h-133l35 108h110q51 274 216 418t430 144q219 0 376 -101l-61 -190q-123 137 -313 137q-168 0 -286 -109.5t-153 -298.5h666l-35 -108h-643v-68h621l-35 -108h-574q35 -197 152 -308.5t287 -111.5q186 0 315 141v-229q-141 -66 -315 -66 q-264 0 -434.5 150.5t-215.5 423.5h-143z" />
<glyph unicode="&#x2122;" horiz-adv-x="1763" d="M0 1257v111h651v-111h-256v-669h-133v669h-262zM748 588v780h206l164 -389l56 -133q18 -45 34 -96q39 117 88 231l160 387h209v-780h-133v444l2 228q-51 -156 -111 -295l-157 -377h-123l-158 377q-55 131 -113 284q8 -119 9 -225v-436h-133z" />
<glyph unicode="&#xe000;" horiz-adv-x="1000" d="M0 1000h1000v-1000h-1000v1000z" />
<glyph unicode="&#xfb01;" horiz-adv-x="1234" d="M6 856v145h236v43q0 211 53 299q80 137 270 138q63 0 135 -17v-153q-63 12 -94 12q-129 0 -162 -102q-16 -59 -16 -174v-46h272v-145h-272v-856h-186v856h-236zM895 1241v205h203v-205h-203zM907 0v1001h187v-1001h-187z" />
<glyph unicode="&#xfb02;" horiz-adv-x="1234" d="M6 856v145h236v43q0 211 53 299q80 137 270 138q63 0 135 -17v-153q-63 12 -94 12q-129 0 -162 -102q-16 -59 -16 -174v-46h272v-145h-272v-856h-186v856h-236zM907 0v1475h187v-1475h-187z" />
<glyph unicode="&#xfb03;" horiz-adv-x="1943" d="M6 856v145h236v43q0 211 53 299q80 137 270 138q63 0 135 -17v-153q-63 12 -94 12q-129 0 -162 -102q-16 -59 -16 -174v-46h471v41q0 207 55 301q82 137 273 138q66 0 137 -17l-12 -153q-51 10 -92 10q-123 0 -156 -102q-16 -59 -17 -172v-46h269v-145h-266v-856h-187 v856h-475v-856h-186v856h-236zM1552 1241v205h203v-205h-203zM1563 0v1001h186v-1001h-186z" />
<glyph unicode="&#xfb04;" horiz-adv-x="1939" d="M6 856v145h236v43q0 211 53 299q80 137 270 138q63 0 135 -17v-153q-63 12 -94 12q-129 0 -162 -102q-16 -59 -16 -174v-46h471v41q0 209 55 301q82 137 273 138q70 0 137 -17l-12 -153q-51 10 -92 10q-123 0 -156 -102q-16 -59 -17 -172v-46h269v-145h-266v-856h-187 v856h-475v-856h-186v856h-236zM1563 0v1475h186v-1475h-186z" />
</font>
</defs>
</svg>
