<?xml version="1.0" standalone="no"?>
<!DOCTYPE svg PUBLIC "-//W3C//DTD SVG 1.1//EN" "http://www.w3.org/Graphics/SVG/1.1/DTD/svg11.dtd" >
<svg xmlns="http://www.w3.org/2000/svg">
<metadata>
This is a custom SVG webfont generated by Font Squirrel.
Copyright   : Typeface  FontSite Inc 19962008 All Rights Reserved wwwfontsitecom
Designer    : FontSitecom
Foundry URL : httpwwwfontsitecom
</metadata>
<defs>
<font id="webfontwfIPNIfh" horiz-adv-x="1146" >
<font-face units-per-em="2048" ascent="1552" descent="-496" />
<missing-glyph horiz-adv-x="512" />
<glyph unicode=" "  horiz-adv-x="512" />
<glyph unicode="&#x09;" horiz-adv-x="512" />
<glyph unicode="&#xa0;" horiz-adv-x="512" />
<glyph unicode="!" horiz-adv-x="653" d="M109 0l45 211h217l-45 -211h-217zM205 379l194 987h217l-235 -987h-176z" />
<glyph unicode="&#x22;" horiz-adv-x="708" d="M227 928l84 547h205l-147 -547h-142zM516 928l86 547h203l-148 -547h-141z" />
<glyph unicode="#" d="M84 414l29 131h176l63 301h-176l29 131h182l82 389h154l-82 -383h264l82 383h153l-84 -389h181l-29 -131h-178l-64 -301h183l-29 -131h-182l-88 -414h-154l88 414h-264l-88 -414h-154l88 414h-182zM449 545h264l63 301h-264z" />
<glyph unicode="$" d="M51 72l62 172q143 -78 303 -90l106 491q-117 61 -172 105q-121 90 -121 249q0 223 201 318q98 45 264 53l39 180h109l-39 -184q147 -12 293 -72l-49 -168q-117 76 -275 91l-92 -435l25 -14q127 -74 160.5 -98.5t62.5 -59.5q68 -86 67 -204q0 -121 -62.5 -216.5 t-176.5 -146.5q-102 -49 -267 -51l-38 -174h-111l39 174q-158 8 -328 80zM430 1020q0 -63 36 -106.5t116 -79.5l82 385q-109 -6 -171.5 -59.5t-62.5 -139.5zM526 152q119 4 193 67.5t74 159.5q0 72 -36 116t-139 99z" />
<glyph unicode="%" horiz-adv-x="1427" d="M139 1010q0 72 24.5 149.5t61.5 124.5q88 104 236 105q119 0 184.5 -66t65.5 -184q0 -174 -90 -287q-82 -100 -218 -100q-127 0 -195.5 66.5t-68.5 191.5zM143 -80l1076 1524h129l-1078 -1524h-127zM283 997q0 -141 118 -141q80 0 123 88q43 86 43 201q0 143 -110 143 q-84 0 -133 -100q-41 -87 -41 -191zM784 236q0 72 25 149.5t63 124.5q86 104 234 104q119 0 185.5 -65.5t66.5 -181.5q0 -176 -92 -289q-78 -100 -217 -101q-127 0 -196 67t-69 192zM928 223q0 -141 121 -141q78 0 122 88q43 86 43 201q0 143 -112 143q-82 0 -131 -100 q-43 -91 -43 -191z" />
<glyph unicode="&#x26;" horiz-adv-x="1402" d="M111 360q0 201 161 312q70 47 228 98q-104 158 -105 283q0 143 110.5 235t282.5 92q164 0 261.5 -80.5t97.5 -216.5q0 -133 -92 -225t-289 -156l221 -321q117 141 154 358h172q-23 -158 -85.5 -293t-148.5 -208l154 -238h-217l-72 111q-156 -129 -391 -129 q-203 0 -322.5 102t-119.5 276zM309 375q0 -104 74 -171t190 -67q78 0 141.5 24.5t141.5 86.5l-268 395q-111 -35 -172 -74q-107 -67 -107 -194zM575 1047q0 -117 99 -224q10 2 26 6q127 37 199 102.5t72 145.5q0 68 -53.5 112t-135.5 44q-88 0 -147.5 -54t-59.5 -132z" />
<glyph unicode="'" horiz-adv-x="419" d="M227 928l84 547h205l-147 -547h-142z" />
<glyph unicode="(" horiz-adv-x="681" d="M152 381q0 375 217 721q94 154 301 373h190q-281 -311 -399.5 -576.5t-118.5 -583.5q0 -324 117 -731h-170q-137 445 -137 797z" />
<glyph unicode=")" horiz-adv-x="681" d="M-158 -416q279 307 398.5 575.5t119.5 584t-116 731.5h170q137 -457 137 -795q0 -375 -217 -723q-90 -143 -299 -373h-193z" />
<glyph unicode="*" d="M313 1214l88 150l261 -190l30 319l174 -37l-94 -301l307 59l17 -172h-318l160 -276l-160 -68l-100 299l-215 -231l-119 127l260 186z" />
<glyph unicode="+" d="M141 623v149h396v381h149v-381h397v-149h-397v-383h-149v383h-396z" />
<glyph unicode="," horiz-adv-x="632" d="M-55 -262l227 483h236l-277 -483h-186z" />
<glyph unicode="-" horiz-adv-x="514" d="M-14 449l32 153h514l-32 -153h-514z" />
<glyph unicode="." horiz-adv-x="509" d="M35 0l47 219h221l-45 -219h-223z" />
<glyph unicode="/" horiz-adv-x="772" d="M-301 -416l1102 1891h168l-1102 -1891h-168z" />
<glyph unicode="0" d="M115 436q0 143 48 332.5t116 312.5q168 303 454 303q180 0 275.5 -109.5t95.5 -316.5q0 -221 -63.5 -431t-176.5 -361q-139 -184 -368 -184q-381 -1 -381 454zM313 406q0 -268 191 -269q162 0 282 256q53 115 86 274.5t33 299.5q0 135 -44 197.5t-140 62.5 q-168 0 -291 -277q-47 -111 -82 -269t-35 -275z" />
<glyph unicode="1" d="M305 1116l408 250h170l-291 -1366h-197l221 1044q16 72 33 111q-39 -39 -100 -80l-156 -104z" />
<glyph unicode="2" d="M0 0l43 199q244 178 496 401q309 276 309 447q0 82 -60.5 128t-164.5 46q-162 0 -336 -84l20 180q176 68 348 67q182 0 288 -82.5t106 -226.5q0 -233 -291 -516q-254 -242 -494 -395h639l-35 -164h-868z" />
<glyph unicode="3" d="M16 49l47 168q145 -78 314 -78q158 0 262 80t104 201q0 213 -348 213q-33 0 -57 -2l35 164q18 -2 41 -2q207 0 324.5 69.5t117.5 192.5q0 82 -58.5 127t-166.5 45q-147 0 -330 -68l23 182q186 43 323 43q193 0 300.5 -80.5t107.5 -224.5q0 -176 -148 -291 q-76 -55 -202 -77q100 -29 145 -68q88 -76 88 -219q0 -193 -158 -324q-145 -119 -399 -118q-191 -1 -365 67z" />
<glyph unicode="4" d="M29 299l34 164l752 903h281l-193 -903h172l-35 -164h-172l-63 -299h-199l64 299h-641zM279 463h426l151 635q20 86 53 172q-59 -104 -157 -226z" />
<glyph unicode="5" d="M74 29l37 166q166 -55 274 -56q172 0 280.5 95.5t108.5 244.5q0 104 -80 165t-217 61q-121 0 -254 -37l164 698h733l-35 -164h-553l-86 -350q53 10 107 10q197 0 307.5 -96t110.5 -268q0 -106 -44 -209t-120 -172q-147 -135 -414 -135q-172 0 -319 47z" />
<glyph unicode="6" d="M137 410q0 319 156 620q184 354 577 354q133 0 293 -49l-57 -157q-109 49 -221 49q-248 0 -402 -236q-47 -70 -112 -250q131 143 315 144q162 0 256 -96.5t94 -264.5q0 -119 -41 -229.5t-110 -183.5q-125 -129 -346 -129q-193 0 -297.5 110.5t-104.5 317.5zM336 369 q0 -106 56.5 -168t152.5 -62q119 0 207 113t88 262q0 96 -57.5 154.5t-151.5 58.5q-123 0 -209 -104t-86 -254z" />
<glyph unicode="7" d="M150 0l774 1202h-668l35 164h874l-41 -180l-743 -1186h-231z" />
<glyph unicode="8" d="M80 338q0 158 99.5 263.5t269.5 125.5q-193 121 -193 301q0 162 122 259t322 97q195 0 306.5 -81.5t111.5 -225.5q0 -121 -85 -214t-238 -142q211 -94 211 -313q0 -170 -119 -293q-133 -133 -369 -133q-199 0 -318.5 97t-119.5 259zM281 354q0 -96 68.5 -155.5 t180.5 -59.5q117 0 199 77t82 185q0 74 -39 120t-145 102q-10 6 -47 24l-50 -16q-121 -41 -185 -113t-64 -164zM449 1032q0 -133 204 -244q145 70 206 130.5t61 138.5q0 76 -61.5 123t-160.5 47q-109 0 -179 -55.5t-70 -139.5z" />
<glyph unicode="9" d="M43 37l57 166q139 -63 248 -64q248 0 391 248q31 55 107 262q-72 -82 -138.5 -114.5t-160.5 -32.5q-168 0 -267.5 98t-99.5 266q0 225 143.5 371.5t364.5 146.5q379 0 379 -409q0 -170 -51 -361.5t-137 -341.5q-164 -291 -525 -290q-161 0 -311 55zM379 881 q0 -102 51 -162t141 -60q123 0 210 100.5t87 244.5q0 98 -54 160.5t-138 62.5q-119 0 -208 -104.5t-89 -241.5z" />
<glyph unicode=":" horiz-adv-x="509" d="M37 0l47 219h221l-47 -219h-221zM203 782l47 219h221l-47 -219h-221z" />
<glyph unicode=";" horiz-adv-x="632" d="M-55 -264l227 481h234l-275 -481h-186zM279 782l47 219h221l-47 -219h-221z" />
<glyph unicode="&#x3c;" horiz-adv-x="1024" d="M104 612v158l887 428v-184l-690 -322l690 -323v-183z" />
<glyph unicode="=" d="M141 479v150h942v-150h-942zM141 766v149h942v-149h-942z" />
<glyph unicode="&#x3e;" horiz-adv-x="1024" d="M104 186v183l691 323l-691 322v182l887 -426v-158z" />
<glyph unicode="?" horiz-adv-x="931" d="M221 0l45 211h207l-45 -211h-207zM221 1153l23 186q186 47 303 47q188 0 291.5 -80.5t103.5 -226.5q0 -137 -104 -254q-35 -41 -64 -65l-162 -133q-61 -51 -86.5 -100.5t-40.5 -145.5h-182l21 104q20 98 60 157.5t138 137.5q143 113 172 148q47 61 47 127q0 80 -58 123 t-169 43q-137 0 -293 -68z" />
<glyph unicode="@" horiz-adv-x="1562" d="M145 678q0 301 208 508t509 207q279 0 464 -173t185 -436q0 -190 -102 -335.5t-235 -145.5q-59 0 -100.5 35t-51.5 94q-90 -141 -256 -141q-125 0 -206 93t-81 234q0 170 105.5 293t253.5 123q158 0 217 -139l22 115h131l-82 -420q-12 -61 -12 -96t18.5 -58.5t47.5 -23.5 q82 0 148.5 114.5t66.5 255.5q0 215 -148.5 353.5t-378.5 138.5q-250 0 -422 -173t-172 -427q0 -244 162 -416q160 -166 434 -166q229 0 420 86l33 -119q-201 -86 -446 -86q-322 0 -523 195q-98 96 -153.5 231.5t-55.5 278.5zM627 623q0 -88 48 -144.5t124 -56.5 q88 0 151.5 84t63.5 203q0 84 -44 135t-118 51q-90 0 -157.5 -80.5t-67.5 -191.5z" />
<glyph unicode="A" horiz-adv-x="1406" d="M-92 0l876 1366h207l299 -1366h-198l-74 342h-672l-217 -342h-221zM442 500h541l-92 477q-27 141 -31 229q-35 -86 -110 -211z" />
<glyph unicode="B" horiz-adv-x="1159" d="M55 0l291 1366h283q233 0 342 -55q68 -35 107.5 -105.5t39.5 -154.5q0 -131 -78.5 -222.5t-216.5 -119.5q229 -57 230 -275q0 -98 -47.5 -190t-126.5 -150q-135 -94 -430 -94h-394zM287 158h151q197 0 289 47q61 33 98 93t37 130q0 117 -88 166q-68 39 -252 39h-135z M420 782h141q168 0 246 45q55 31 88 87.5t33 117.5q0 176 -271 176h-147z" />
<glyph unicode="C" horiz-adv-x="1216" d="M129 586q0 182 75 347t208 273q215 178 542 178q193 0 334 -63l-55 -168q-131 61 -285 61q-262 0 -437 -175t-175 -435q0 -207 124 -329.5t333 -122.5q145 0 270 51l-25 -185q-123 -37 -270 -36q-287 0 -463 167t-176 437z" />
<glyph unicode="D" horiz-adv-x="1378" d="M55 0l291 1366h213q203 0 328 -25.5t223 -89.5q225 -141 225 -471q0 -201 -80.5 -372.5t-220.5 -266.5q-117 -80 -275.5 -110.5t-447.5 -30.5h-256zM289 168h125q307 0 460 92q119 72 187.5 209t68.5 301q0 225 -130 326.5t-414 101.5h-78z" />
<glyph unicode="E" horiz-adv-x="1038" d="M55 0l291 1366h746l-35 -168h-549l-86 -410h512l-35 -167h-514l-96 -453h573l-35 -168h-772z" />
<glyph unicode="F" horiz-adv-x="980" d="M55 0l291 1366h721l-37 -168h-522l-88 -416h489l-37 -168h-487l-131 -614h-199z" />
<glyph unicode="G" horiz-adv-x="1370" d="M127 592q0 172 69.5 333.5t188.5 268.5q219 190 559 190q236 0 422 -79l-55 -170q-186 80 -361 79q-264 0 -430 -153q-86 -80 -137 -204t-51 -255q0 -205 127 -327.5t340 -122.5q90 0 172 26l88 410h-287l35 168h485l-155 -727q-141 -47 -326 -47q-324 0 -504 159.5 t-180 450.5z" />
<glyph unicode="H" horiz-adv-x="1378" d="M55 0l291 1366h197l-121 -573h653l123 573h199l-291 -1366h-199l133 625h-655l-131 -625h-199z" />
<glyph unicode="I" horiz-adv-x="512" d="M47 0l291 1366h197l-289 -1366h-199z" />
<glyph unicode="J" horiz-adv-x="716" d="M-92 16l35 172q88 -37 151 -36q115 0 168 63q43 51 84 240l195 911h198l-211 -993q-49 -221 -137 -299q-109 -92 -282 -92q-99 -1 -201 34z" />
<glyph unicode="K" horiz-adv-x="1239" d="M55 0l291 1366h197l-127 -602l651 602h260l-733 -670l551 -696h-248l-504 655l-139 -655h-199z" />
<glyph unicode="L" horiz-adv-x="919" d="M55 0l291 1366h197l-254 -1198h573l-37 -168h-770z" />
<glyph unicode="M" horiz-adv-x="1804" d="M55 0l291 1366h328l133 -854q27 -184 27 -262v-10l-3 -68q18 84 132 274l542 920h316l-289 -1366h-184l190 897q43 203 96 373h-8q-61 -147 -182 -346l-553 -924h-191l-108 639q-80 473 -86 635h-8q-16 -135 -101 -531l-157 -743h-185z" />
<glyph unicode="N" horiz-adv-x="1394" d="M55 0l291 1366h256l248 -727q133 -395 139 -524q12 184 72 460l168 791h184l-291 -1366h-256l-262 772q-102 299 -123 463q-6 -119 -39 -277l-202 -958h-185z" />
<glyph unicode="O" horiz-adv-x="1480" d="M123 565q0 164 65.5 331t176.5 280q199 209 518 208q258 0 401 -148.5t143 -416.5q0 -166 -60 -328.5t-167 -287.5q-190 -221 -520 -221q-268 0 -412.5 151t-144.5 432zM328 553q0 -190 98 -295.5t276 -105.5q236 0 373 200q147 213 148 477q0 172 -96.5 278.5 t-252.5 106.5q-238 0 -397 -215q-68 -90 -108.5 -212.5t-40.5 -233.5z" />
<glyph unicode="P" horiz-adv-x="1103" d="M55 0l291 1366h264q244 0 369 -76q147 -90 147 -282q0 -102 -46 -196.5t-124 -152.5q-147 -113 -442 -112h-143l-117 -547h-199zM406 715h110q211 0 301 67q104 78 105 213q0 203 -310 203h-104z" />
<glyph unicode="Q" horiz-adv-x="1480" d="M123 553q0 174 64.5 341t177.5 282q209 209 518 208q258 0 401 -148.5t143 -416.5q0 -272 -142 -499.5t-357 -301.5l241 -270h-239l-197 236q-23 -2 -57 -2q-260 0 -406.5 151.5t-146.5 419.5zM328 553q0 -190 98 -295.5t276 -105.5q236 0 373 200q147 213 148 477 q0 172 -96.5 278.5t-252.5 106.5q-238 0 -397 -215q-68 -90 -108.5 -212.5t-40.5 -233.5z" />
<glyph unicode="R" horiz-adv-x="1191" d="M55 0l291 1366h248q166 0 246 -12.5t143 -44.5q145 -78 145 -265q0 -147 -98 -254.5t-252 -125.5q57 -20 78 -49t43 -111l129 -504h-201l-106 453q-23 100 -63 125.5t-166 25.5h-111l-127 -604h-199zM418 772h114q174 0 265 45q57 27 91 82t34 117q0 104 -78 147 q-63 35 -236 35h-100z" />
<glyph unicode="S" horiz-adv-x="1040" d="M45 63l61 170q166 -82 295 -81.5t213 71t84 178.5q0 98 -88 166q-20 16 -172 107q-113 70 -164 143.5t-51 169.5q0 174 129 285.5t330 111.5q174 0 324 -69l-50 -170q-127 70 -266 69q-117 0 -189.5 -56t-72.5 -150q0 -66 39 -110t160 -114q158 -90 217 -168.5t59 -199.5 q0 -195 -133 -314.5t-350 -119.5q-205 -1 -375 81z" />
<glyph unicode="T" horiz-adv-x="1075" d="M160 1198l35 168h1048l-37 -168h-422l-256 -1198h-196l254 1198h-426z" />
<glyph unicode="U" horiz-adv-x="1374" d="M147 385q0 117 31 258l154 723h198l-159 -743q-27 -117 -27 -197q0 -123 80 -198.5t209 -75.5q86 0 162.5 36.5t124.5 100.5q80 104 131 344l157 733h197l-164 -770q-41 -195 -93 -304.5t-134 -178.5q-150 -131 -389 -131q-213 0 -345.5 111.5t-132.5 291.5z" />
<glyph unicode="V" horiz-adv-x="1284" d="M188 1366h197l121 -786q49 -324 49 -443q57 154 186 373l504 856h213l-813 -1366h-233z" />
<glyph unicode="W" horiz-adv-x="1959" d="M201 1366h192l51 -704q6 -74 12.5 -164t6.5 -103q4 -78 4 -274q16 96 151 385l404 860h264l29 -731q8 -213 8 -336q0 -88 -8 -178q33 127 192 446l404 799h209l-707 -1366h-254l-35 936q-2 37 -2 141q0 88 6 180q-49 -164 -151 -385l-404 -872h-258z" />
<glyph unicode="X" horiz-adv-x="1290" d="M-102 0l657 733l-326 633h211l267 -516l452 516h246l-590 -655l359 -711h-218l-288 592l-518 -592h-252z" />
<glyph unicode="Y" horiz-adv-x="1273" d="M180 1366h217l271 -612l538 612h248l-711 -793l-120 -573h-199l123 573z" />
<glyph unicode="Z" horiz-adv-x="1142" d="M-14 0l34 166l920 1032h-692l35 168h915l-37 -170l-901 -1028h713l-35 -168h-952z" />
<glyph unicode="[" horiz-adv-x="681" d="M49 -416l402 1891h376l-28 -129h-195l-348 -1633h197l-29 -129h-375z" />
<glyph unicode="\" horiz-adv-x="759" d="M211 1475h156l297 -1891h-156z" />
<glyph unicode="]" horiz-adv-x="681" d="M-137 -416l26 129h197l346 1633h-194l26 129h377l-403 -1891h-375z" />
<glyph unicode="^" horiz-adv-x="1024" d="M76 729l352 641h242l352 -641h-197l-276 496l-277 -496h-196z" />
<glyph unicode="_" horiz-adv-x="1024" d="M37 -121h1024v-168h-1024v168z" />
<glyph unicode="`" horiz-adv-x="1024" d="M436 1442h193l162 -281h-123z" />
<glyph unicode="a" horiz-adv-x="1036" d="M25 268q0 88 44 162t117 111q150 76 416 75q78 0 150 -10q6 61 6 80q0 88 -59.5 138t-161.5 50q-150 0 -312 -77l37 170q162 51 285 51q178 0 282.5 -83t104.5 -226q0 -57 -8 -110.5t-62 -315.5q-6 -20 -49 -283h-168q12 115 29 174q-121 -190 -336 -190 q-141 0 -228 78.5t-87 205.5zM219 279q0 -68 48 -110t124 -42q129 0 219 102q66 80 105 248q-66 4 -88 4q-195 0 -301.5 -53t-106.5 -149z" />
<glyph unicode="b" horiz-adv-x="1187" d="M31 0l317 1475h182l-131 -619q76 90 149 126t181 36q176 0 277.5 -106.5t101.5 -293.5q0 -127 -42 -252.5t-114 -218.5q-129 -164 -352 -163q-150 0 -240 57q-74 45 -102 154l-41 -195h-186zM317 428q0 -139 69 -220t185 -81q150 0 242 145q98 158 98 346 q0 121 -59 188.5t-166 67.5q-145 0 -257 -134t-112 -312z" />
<glyph unicode="c" horiz-adv-x="905" d="M80 420q0 266 157.5 432t407.5 166q123 0 252 -45l-43 -142q-111 43 -197 43q-166 0 -273.5 -126.5t-107.5 -323.5q0 -143 72 -220t205 -77q88 0 211 45l-37 -160q-121 -29 -213 -28q-205 0 -319.5 115.5t-114.5 320.5z" />
<glyph unicode="d" horiz-adv-x="1187" d="M78 406q0 238 139 425q139 186 373 187q164 0 258 -82q55 -45 72 -135q8 84 36 221l97 453h184l-244 -1147q-29 -137 -55 -328h-172q12 98 29 158q-59 -92 -135 -133t-191 -41q-180 0 -285.5 113.5t-105.5 308.5zM276 426q0 -143 61.5 -221t172.5 -78q147 0 248.5 133 t101.5 328q0 133 -64.5 209.5t-177.5 76.5q-143 0 -233 -116q-109 -144 -109 -332z" />
<glyph unicode="e" horiz-adv-x="1050" d="M76 410q0 125 44 248.5t120 207.5q135 152 368 152q182 0 283.5 -99.5t101.5 -275.5q0 -72 -22 -186h-705q-8 -66 -8 -90q0 -115 80 -177.5t227 -62.5q123 0 291 59l-35 -159q-154 -43 -280 -43q-227 0 -346 109.5t-119 316.5zM293 600h514q6 43 6 78q0 90 -55.5 143 t-151.5 53q-141 0 -231 -106q-51 -59 -82 -168z" />
<glyph unicode="f" horiz-adv-x="710" d="M53 858l31 143h240l26 119q25 111 57.5 173.5t90.5 109.5q104 82 241 82q57 0 140 -23l-31 -151q-55 16 -90 16q-123 0 -185 -108q-29 -55 -63 -218h272l-30 -143h-275l-182 -858h-184l182 858h-240z" />
<glyph unicode="g" horiz-adv-x="1169" d="M25 -356l34 155q186 -86 332 -86q231 0 316 199q23 51 67 242q-61 -84 -133 -120t-172 -36q-182 0 -285.5 111.5t-103.5 308.5q0 244 145 428q135 172 369 172q268 0 326 -201q10 76 36 184h177l-207 -972q-31 -145 -75 -227.5t-122 -137.5q-137 -94 -342 -94 q-157 0 -362 74zM279 434q0 -139 61 -216t172 -77q145 0 245.5 133.5t100.5 325.5q0 125 -65.5 199.5t-174.5 74.5q-139 0 -239 -130t-100 -310z" />
<glyph unicode="h" horiz-adv-x="1155" d="M31 0l313 1475h184l-129 -609q68 84 138.5 118t173.5 34q158 0 250 -80t92 -215q0 -96 -31 -234l-104 -489h-185l119 555q18 92 18 135q0 80 -52 129t-138 49q-131 0 -228.5 -105.5t-136.5 -291.5l-100 -471h-184z" />
<glyph unicode="i" horiz-adv-x="464" d="M31 0l213 1001h184l-213 -1001h-184zM266 1161l43 205h207l-43 -205h-207z" />
<glyph unicode="j" horiz-adv-x="495" d="M-248 -401l33 147q49 -20 88 -20q72 0 107.5 43t60.5 155l227 1077h185l-232 -1085q-39 -193 -92 -256q-35 -41 -97.5 -65.5t-129.5 -24.5q-66 0 -150 29zM289 1161l43 205h209l-43 -205h-209z" />
<glyph unicode="k" horiz-adv-x="1040" d="M31 0l313 1475h184l-182 -863l473 389h266l-565 -450l410 -551h-236l-368 516l-111 -516h-184z" />
<glyph unicode="l" horiz-adv-x="464" d="M31 0l313 1475h184l-313 -1475h-184z" />
<glyph unicode="m" horiz-adv-x="1695" d="M31 0l213 1001h166q-20 -111 -39 -165q125 182 327.5 182t272.5 -182q131 182 338 182q135 0 216 -69.5t81 -188.5q0 -68 -25 -185l-123 -575h-182l123 584q20 102 20 131q0 72 -42 112.5t-115 40.5q-115 0 -197 -97t-119 -275l-104 -496h-185l121 580q23 113 23 145 q0 63 -44 103t-114 40q-117 0 -203 -107.5t-129 -307.5l-96 -453h-184z" />
<glyph unicode="n" horiz-adv-x="1169" d="M43 0l152 713q16 78 49 288h178l-14 -67l-13 -70l-14 -51q68 109 152.5 157t203.5 48q147 0 236.5 -84t89.5 -223q0 -106 -33 -258l-96 -453h-184l98 465q31 150 31 231q0 78 -51.5 125t-135.5 47q-143 0 -239 -116q-88 -106 -136 -328l-90 -424h-184z" />
<glyph unicode="o" horiz-adv-x="1165" d="M80 438q0 117 47 235t125 195q150 150 393 150q207 0 324.5 -119t117.5 -328q0 -135 -53 -260t-143 -200q-147 -127 -365 -127q-207 0 -326.5 121.5t-119.5 332.5zM279 428q0 -139 67.5 -220t183.5 -81q145 0 251 134t106 319q0 137 -67.5 215.5t-182.5 78.5 q-150 0 -254 -131t-104 -315z" />
<glyph unicode="p" horiz-adv-x="1179" d="M-47 -416l225 1063q47 217 66 354h174q-6 -55 -33 -155q70 92 149.5 132t190.5 40q174 0 274.5 -107.5t100.5 -292.5q0 -129 -42 -254.5t-116 -218.5q-131 -162 -362 -161q-170 0 -258 88q-39 39 -66 112q-6 -72 -20 -135l-99 -465h-184zM319 410q0 -133 65 -208t179 -75 q152 0 242 143q98 160 98 348q0 121 -57.5 188.5t-159.5 67.5q-150 0 -258.5 -138t-108.5 -326z" />
<glyph unicode="q" horiz-adv-x="1181" d="M78 397q0 236 129 422q139 199 391 199q172 0 258 -92q37 -37 66 -109l39 184h184l-301 -1417h-185l113 531q-80 -78 -142.5 -104.5t-160.5 -26.5q-176 0 -283.5 113.5t-107.5 299.5zM276 422q0 -141 61.5 -218t174.5 -77q143 0 240 125q109 147 108 340 q0 129 -65.5 205.5t-176.5 76.5q-143 0 -242.5 -132t-99.5 -320z" />
<glyph unicode="r" horiz-adv-x="735" d="M39 0l151 711q27 117 50 290h172q-12 -111 -35 -190q51 86 94 127q90 80 223 80q59 0 115 -23l-33 -151q-63 25 -106 24q-264 0 -355 -430l-92 -438h-184z" />
<glyph unicode="s" horiz-adv-x="782" d="M-4 31l33 153q123 -57 235 -57q90 0 146.5 42t56.5 112q0 68 -64 125q-14 12 -151 108q-129 92 -129 223q0 125 102.5 203t266.5 78q143 0 272 -53l-51 -142q-117 51 -213 51q-80 0 -128 -34.5t-48 -94.5q0 -39 21.5 -64.5t84.5 -66.5q104 -70 168 -133q68 -66 68 -166 q0 -145 -113 -238t-289 -93q-127 0 -268 47z" />
<glyph unicode="t" horiz-adv-x="727" d="M53 858l31 143h225l49 234l199 72l-63 -306h272l-31 -143h-272l-109 -510q-12 -57 -12 -104q0 -51 38 -81t101 -30q55 0 119 31l-33 -150q-80 -31 -157 -30q-125 0 -191.5 57t-66.5 164q0 59 16 135l111 518h-226z" />
<glyph unicode="u" horiz-adv-x="1150" d="M90 264q0 74 23 180l118 557h185l-125 -587q-12 -53 -12 -103q0 -80 51 -129t135 -49q117 0 211 98q100 109 151 347l91 423h184l-144 -679q-37 -172 -57 -322h-164l8 74q6 45 21 112q-59 -88 -111 -127q-102 -76 -241 -75q-143 0 -233.5 77.5t-90.5 202.5z" />
<glyph unicode="v" horiz-adv-x="940" d="M90 1001h189l83 -579q23 -147 23 -236v-49q25 80 86 195l363 669h196l-561 -1001h-219z" />
<glyph unicode="w" horiz-adv-x="1622" d="M117 1001h184l53 -593q12 -133 13 -205l-5 -74l27 66q109 262 414 806h221l53 -552q14 -156 15 -246q0 -41 -2 -74q41 139 143 338l278 534h201l-543 -1001h-206l-66 584q-14 129 -14 211q0 2 4 84q-29 -113 -125 -289l-320 -590h-213z" />
<glyph unicode="x" horiz-adv-x="958" d="M-102 0l462 526l-213 475h199l156 -360l299 360h225l-426 -479l244 -522h-207l-172 395l-334 -395h-233z" />
<glyph unicode="y" horiz-adv-x="956" d="M-117 -408l33 154q43 -14 88 -14q74 0 121 34.5t100 124.5l41 72l-164 1038h191l92 -657q16 -109 16 -154v-30q23 63 74 159l371 682h198l-651 -1153q-90 -158 -170 -216t-211 -58q-61 0 -129 18z" />
<glyph unicode="z" horiz-adv-x="978" d="M-27 0l33 147l723 711h-567l31 143h790l-31 -145l-727 -713h594l-31 -143h-815z" />
<glyph unicode="{" horiz-adv-x="1009" d="M248 -231q0 43 14 114l82 389q10 55 10 84q0 86 -84 107l29 133q66 16 100.5 59t53.5 129l86 406q33 156 125 220.5t272 64.5h33l-27 -132q-119 0 -163 -32.5t-66 -134.5l-86 -404q-20 -100 -58.5 -153.5t-111.5 -88.5q78 -55 78 -147q0 -43 -13 -100l-84 -396 q-12 -55 -12 -86q0 -47 38 -66.5t132 -17.5l-29 -133h-32h-58q-229 1 -229 185z" />
<glyph unicode="|" horiz-adv-x="1024" d="M457 -342v1708h184v-1708h-184z" />
<glyph unicode="}" horiz-adv-x="1009" d="M47 -416l29 133q119 0 163 32t66 136l86 402q20 102 58 154.5t112 88.5q-78 53 -78 146q0 41 13 102l82 393q14 66 14 86q0 47 -38 66.5t-132 19.5l27 132h34h56q113 0 172 -47.5t59 -137.5q0 -43 -14 -114l-82 -390q-10 -41 -10 -84q0 -86 84 -106l-29 -133 q-68 -16 -102.5 -59.5t-53.5 -129.5l-86 -405q-33 -156 -125 -220.5t-272 -64.5h-33z" />
<glyph unicode="~" horiz-adv-x="1366" d="M225 1249q47 98 76 135q84 115 213 115q74 0 225 -65q137 -61 192.5 -61.5t91.5 27t83 103.5l108 -63q-61 -125 -124 -178q-86 -66 -183 -66q-66 0 -289 94q-68 31 -118.5 31t-88.5 -32t-79 -109z" />
<glyph unicode="&#xa1;" horiz-adv-x="653" d="M33 -362l235 985h176l-194 -985h-217zM279 791l45 210h217l-45 -210h-217z" />
<glyph unicode="&#xa2;" d="M240 586q0 258 148.5 424t389.5 174l37 168h109l-37 -172q86 -10 170 -41l-41 -142q-92 37 -160 43l-158 -747q117 2 228 43l-37 -158q-123 -31 -221 -28l-35 -168h-111l39 178q-156 31 -238.5 141.5t-82.5 284.5zM438 590q0 -213 156 -277l154 721 q-139 -27 -224.5 -148.5t-85.5 -295.5z" />
<glyph unicode="&#xa3;" d="M49 0l33 158h184l109 506h-166l22 108h166l31 148q51 244 168 348q125 109 322 108q125 0 284 -53l-45 -160q-115 49 -221 49q-182 0 -264 -159q-33 -66 -76 -281h319l-24 -108h-318l-108 -506h489l-34 -158h-871z" />
<glyph unicode="&#xa4;" d="M106 993l89 88l161 -161q111 80 236 79.5t233 -77.5l162 157l86 -86l-160 -159q80 -115 80 -232t-78 -229l162 -160l-88 -88l-160 160q-113 -80 -235 -80q-117 0 -236 80l-161 -160l-86 88l157 160q-78 109 -78 229q0 119 80 229zM336 602.5q0 -106.5 74.5 -181.5 t181 -75t181.5 75t75 181q0 104 -75 180t-177 76q-109 0 -184.5 -74.5t-75.5 -181z" />
<glyph unicode="&#xa5;" d="M109 530l24 109h330l-35 111h-281l23 108h223l-160 508h179l188 -612l465 612h209l-379 -508h244l-23 -108h-305l-80 -111h359l-23 -109h-397l-119 -530h-197l117 530h-362z" />
<glyph unicode="&#xa6;" horiz-adv-x="1024" d="M457 313h184v-655h-184v655zM457 676v690h184v-690h-184z" />
<glyph unicode="&#xa7;" d="M-53 -381l55 180q152 -72 313 -71q160 0 260.5 68.5t100.5 176.5q0 61 -41 100.5t-154 90.5l-108 49q-127 57 -183.5 120.5t-56.5 155.5q0 119 78 226q41 55 82 84.5t113 54.5q-74 47 -104 94t-30 123q0 176 161 299t392 123q164 0 297 -41l-53 -172q-137 57 -283 57 q-143 0 -236 -64.5t-93 -164.5q0 -57 42 -97t156 -93l131 -62q96 -45 123 -63q113 -74 113 -207q0 -238 -274 -363q72 -39 100.5 -85t28.5 -120q0 -84 -44.5 -169t-121.5 -148q-164 -135 -441 -135q-178 0 -323 53zM297 561q0 -82 80 -137q57 -37 143 -76l172 -74 q158 115 158 246q0 63 -42 105.5t-161 99.5l-182 86q-168 -123 -168 -250z" />
<glyph unicode="&#xa8;" horiz-adv-x="1024" d="M385 1194l43 199h178l-43 -199h-178zM756 1194l41 199h180l-43 -199h-178z" />
<glyph unicode="&#xa9;" horiz-adv-x="1595" d="M135 682q0 295 205 498.5t502 203.5q283 0 485.5 -206.5t202.5 -493.5q0 -291 -205 -496.5t-491.5 -205.5t-492.5 205.5t-206 494.5zM244 684q0 -248 173 -425t416.5 -177t415.5 177t172 425q0 246 -171 424t-408 178q-250 0 -424 -175t-174 -427zM449 686 q0 170 120.5 278.5t313.5 108.5q113 0 192 -37l-10 -118q-94 47 -176 47q-133 0 -217 -78t-84 -199q0 -123 87 -204t218 -81q84 0 182 37l8 -121q-84 -29 -186 -28q-205 0 -326.5 106.5t-121.5 288.5z" />
<glyph unicode="&#xaa;" horiz-adv-x="765" d="M150 594l18 88h528l-20 -88h-526zM199 934q0 213 368 213q25 0 86 -4q4 14 4 33q0 51 -35.5 79.5t-99.5 28.5q-92 0 -205 -53l27 121q106 33 186 32q117 0 185.5 -52t68.5 -140q0 -45 -41 -250q-16 -86 -30 -176h-121q0 12 1 22.5t3 24.5l4 29q-84 -86 -194 -86 q-92 0 -149.5 49t-57.5 129zM338 940q0 -37 28.5 -60.5t73.5 -23.5q141 0 191 193h-15q0 2 -34 2q-244 0 -244 -111z" />
<glyph unicode="&#xab;" horiz-adv-x="1046" d="M94 575l328 328h188l-321 -371l151 -430h-161zM506 530l344 373h182l-334 -403l164 -398h-168z" />
<glyph unicode="&#xac;" horiz-adv-x="1024" d="M104 375v172h887v-547h-184v375h-703z" />
<glyph unicode="&#xad;" horiz-adv-x="514" d="M-14 449l32 153h514l-32 -153h-514z" />
<glyph unicode="&#xae;" horiz-adv-x="1595" d="M135 682q0 295 205 498.5t502 203.5q283 0 485.5 -206.5t202.5 -493.5q0 -291 -205 -496.5t-491.5 -205.5t-492.5 205.5t-206 494.5zM244 684q0 -248 173 -425t416.5 -177t415.5 177t172 425q0 246 -171 424t-408 178q-250 0 -424 -175t-174 -427zM575 297v772h203 q119 0 187 -20q63 -20 101 -71.5t38 -115.5q0 -141 -154 -180q47 -27 80 -96l144 -289h-150l-109 231q-33 70 -58.5 88.5t-90.5 18.5h-59v-338h-132zM707 743h63q106 0 152.5 26t46.5 85q0 57 -44 82t-143 25h-75v-218z" />
<glyph unicode="&#xaf;" horiz-adv-x="1024" d="M373 1231l24 117h582l-25 -117h-581z" />
<glyph unicode="&#xb0;" horiz-adv-x="813" d="M256 1206q0 117 88 202t209 85q125 0 212 -85t87 -206t-87 -207t-210 -86q-125 0 -212 86t-87 211zM373 1204q0 -78 53 -130t129 -52q74 0 127 53t53 125q0 76 -53 128t-129 52q-74 0 -127 -52t-53 -124z" />
<glyph unicode="&#xb1;" d="M100 117v149h942v-149h-942zM100 745v150h396v381h149v-381h397v-150h-397v-383h-149v383h-396z" />
<glyph unicode="&#xb2;" horiz-adv-x="526" d="M121 819l20 92q74 49 213 162q127 106 127 172q0 63 -92 64q-68 0 -151 -39l8 90q90 31 160 31q82 0 130 -36t48 -98q0 -76 -70 -155.5t-244 -200.5h258l-18 -82h-389z" />
<glyph unicode="&#xb3;" horiz-adv-x="526" d="M127 842l25 84q68 -33 141 -33q63 0 104 28.5t41 71.5q0 80 -145 80q-18 0 -31 -2l17 82h24q84 0 132 24.5t48 69.5q0 63 -92 64q-63 0 -147 -31l10 90q82 20 145 21q88 0 137.5 -35t49.5 -96q0 -109 -123 -148q76 -39 76 -115q0 -82 -69 -133t-177 -51q-86 0 -166 29z " />
<glyph unicode="&#xb4;" horiz-adv-x="1024" d="M518 1161l225 281h205l-299 -281h-131z" />
<glyph unicode="&#xb5;" horiz-adv-x="1150" d="M-72 -416l301 1417h185l-125 -587q-10 -43 -10 -103q0 -80 51 -129t135 -49q123 0 211 98q100 106 151 347l91 423h184l-146 -679q-37 -174 -55 -322h-166l8 74q6 47 21 112q-59 -88 -111 -127q-102 -76 -239 -75q-121 0 -215 63l-72 -463h-199z" />
<glyph unicode="&#xb6;" d="M158 887q0 100 45 201.5t121 164.5q127 113 364 113h543l-31 -143h-104l-348 -1639h-158l348 1639h-180l-348 -1639h-160l219 1024h-29q-131 0 -206.5 76t-75.5 203z" />
<glyph unicode="&#xb7;" horiz-adv-x="505" d="M121 416l47 219h221l-45 -219h-223z" />
<glyph unicode="&#xb8;" horiz-adv-x="1024" d="M219 -367l41 68q66 -27 129 -27q51 0 83 22.5t32 59.5q0 29 -25.5 48.5t-60.5 19.5q-25 0 -74 -14l-29 32l109 158h84l-78 -109q55 8 76 9q66 0 104.5 -36t38.5 -93q0 -74 -71.5 -126.5t-171.5 -52.5q-99 0 -187 41z" />
<glyph unicode="&#xb9;" horiz-adv-x="526" d="M244 1276l184 106h84l-119 -563h-102l96 449l-96 -62z" />
<glyph unicode="&#xba;" horiz-adv-x="854" d="M145 594l19 88h598l-19 -88h-598zM221 1036q0 150 102.5 249t260.5 99q133 0 210.5 -73.5t77.5 -202.5q0 -154 -101 -253t-257 -99q-135 0 -214 75.5t-79 204.5zM362 1032q0 -82 42 -129t114 -47q86 0 148.5 75t62.5 181q0 78 -42 125t-112 47q-90 0 -151.5 -73 t-61.5 -179z" />
<glyph unicode="&#xbb;" horiz-adv-x="1046" d="M8 102l336 404l-166 397h170l189 -428l-344 -373h-185zM430 102l324 371l-152 430h162l182 -473l-328 -328h-188z" />
<glyph unicode="&#xbc;" horiz-adv-x="1865" d="M266 1214l266 154h117l-174 -821h-141l133 624q2 6 5 19.5t5 19.5l-145 -94zM358 -80l1078 1524h127l-1076 -1524h-129zM1094 176l22 107l471 538h189l-113 -532h109l-25 -113h-109l-36 -176h-142l37 176h-403zM1276 289h246l98 407z" />
<glyph unicode="&#xbd;" horiz-adv-x="1865" d="M266 1214l266 154h117l-174 -821h-141l133 624q2 6 5 19.5t5 19.5l-145 -94zM358 -80l1078 1524h127l-1076 -1524h-129zM1077 0l29 129q139 94 309 238q188 156 189 256q0 45 -37 70.5t-101 25.5q-98 0 -217 -53l13 125q117 41 227 40q119 0 188.5 -51t69.5 -141 q0 -143 -182 -307q-147 -133 -285 -219h385l-25 -113h-563z" />
<glyph unicode="&#xbe;" horiz-adv-x="1865" d="M94 578l33 116q100 -51 205 -51q94 0 156.5 44t62.5 112q0 121 -217 121q-23 0 -43 -2l24 112q301 0 301 144q0 96 -139 96q-90 0 -213 -43l15 125q121 29 210 28q125 0 197 -50t72 -140q0 -80 -58 -143q-45 -49 -133 -76q123 -49 123 -168t-99 -193.5t-257 -74.5 q-125 0 -240 43zM356 -80l1078 1524h129l-1078 -1524h-129zM1092 176l22 107l473 538h189l-115 -532h108l-22 -113h-109l-39 -176h-141l39 176h-405zM1276 289h246l98 407z" />
<glyph unicode="&#xbf;" horiz-adv-x="931" d="M-2 -76q0 137 104 254q35 41 64 66l162 133q61 51 86.5 99t40.5 147h182l-23 -105q-23 -98 -61.5 -158.5t-134.5 -136.5q-145 -111 -172 -147q-47 -61 -47 -127q0 -78 58 -121t167 -43q139 0 293 65l-23 -186q-188 -47 -303 -47q-186 0 -289.5 81t-103.5 226zM467 791 l45 210h205l-45 -210h-205z" />
<glyph unicode="&#xc0;" horiz-adv-x="1406" d="M-92 0l876 1366h207l299 -1366h-198l-74 342h-672l-217 -342h-221zM442 500h541l-92 477q-27 141 -31 229q-35 -86 -110 -211zM602 1759h221l166 -266h-133z" />
<glyph unicode="&#xc1;" horiz-adv-x="1406" d="M-92 0l876 1366h207l299 -1366h-198l-74 342h-672l-217 -342h-221zM442 500h541l-92 477q-27 141 -31 229q-35 -86 -110 -211zM846 1493l213 266h233l-305 -266h-141z" />
<glyph unicode="&#xc2;" horiz-adv-x="1406" d="M-92 0l876 1366h207l299 -1366h-198l-74 342h-672l-217 -342h-221zM442 500h541l-92 477q-27 141 -31 229q-35 -86 -110 -211zM598 1493l281 266h182l166 -266h-164l-111 170l-182 -170h-172z" />
<glyph unicode="&#xc3;" horiz-adv-x="1406" d="M-92 0l876 1366h207l299 -1366h-198l-74 342h-672l-217 -342h-221zM442 500h541l-92 477q-27 141 -31 229q-35 -86 -110 -211zM627 1526q66 211 215 211q66 0 184 -64q49 -27 76 -26q70 0 98 86l94 -2q-2 -4 -4 -10.5t-4 -8.5q-25 -80 -59 -123q-59 -72 -140 -71 q-39 0 -67.5 9t-112.5 52q-70 35 -96 35q-53 0 -90 -88h-94z" />
<glyph unicode="&#xc4;" horiz-adv-x="1406" d="M-92 0l876 1366h207l299 -1366h-198l-74 342h-672l-217 -342h-221zM442 500h541l-92 477q-27 141 -31 229q-35 -86 -110 -211zM643 1520l43 198h186l-43 -198h-186zM1042 1520l43 198h187l-45 -198h-185z" />
<glyph unicode="&#xc5;" horiz-adv-x="1406" d="M-92 0l876 1366h207l299 -1366h-198l-74 342h-672l-217 -342h-221zM442 500h541l-92 477q-27 141 -31 229q-35 -86 -110 -211zM715 1642.5q0 83.5 60.5 143t146.5 59.5q82 0 141 -60.5t59 -142.5q0 -84 -59 -144t-143 -60q-86 0 -145.5 60.5t-59.5 144zM819 1642.5 q0 -40.5 29 -70.5t69.5 -30t69.5 30t29 70q0 39 -29 69t-67 30q-41 0 -71 -29t-30 -69.5z" />
<glyph unicode="&#xc6;" horiz-adv-x="1804" d="M-104 0l1093 1366h854l-33 -168h-501l-80 -412h467l-37 -168h-465l-86 -450h514l-35 -168h-713l66 344h-526l-279 -344h-239zM545 512h428l147 727z" />
<glyph unicode="&#xc7;" horiz-adv-x="1216" d="M129 586q0 182 75 347t208 273q215 178 542 178q193 0 334 -63l-55 -168q-131 61 -285 61q-262 0 -437 -174t-175 -436q0 -205 125 -327.5t332 -122.5q145 0 270 51l-25 -187q-121 -35 -297 -36l-71 -91q57 8 71 9q61 0 102.5 -37t41.5 -92q0 -82 -71 -135.5t-177 -53.5 q-100 0 -184 41l41 74q63 -29 129 -29q51 0 82.5 23.5t31.5 60.5q0 31 -24.5 51.5t-63.5 20.5q-14 0 -71 -14l-29 32l108 148q-215 37 -340 149q-188 164 -188 447z" />
<glyph unicode="&#xc8;" horiz-adv-x="1038" d="M55 0l291 1366h746l-35 -168h-549l-86 -410h512l-35 -167h-514l-96 -453h573l-35 -168h-772zM444 1759h222l165 -266h-133z" />
<glyph unicode="&#xc9;" horiz-adv-x="1038" d="M55 0l291 1366h746l-35 -168h-549l-86 -410h512l-35 -167h-514l-96 -453h573l-35 -168h-772zM657 1493l213 266h234l-305 -266h-142z" />
<glyph unicode="&#xca;" horiz-adv-x="1038" d="M55 0l291 1366h746l-35 -168h-549l-86 -410h512l-35 -167h-514l-96 -453h573l-35 -168h-772zM434 1493l281 266h182l166 -266h-164l-111 170l-182 -170h-172z" />
<glyph unicode="&#xcb;" horiz-adv-x="1038" d="M55 0l291 1366h746l-35 -168h-549l-86 -410h512l-35 -167h-514l-96 -453h573l-35 -168h-772zM471 1520l43 198h186l-43 -198h-186zM870 1520l43 198h187l-45 -198h-185z" />
<glyph unicode="&#xcc;" horiz-adv-x="512" d="M47 0l291 1366h197l-289 -1366h-199zM172 1759h215l154 -266h-135z" />
<glyph unicode="&#xcd;" horiz-adv-x="512" d="M47 0l291 1366h197l-289 -1366h-199zM383 1493l201 266h225l-285 -266h-141z" />
<glyph unicode="&#xce;" horiz-adv-x="512" d="M47 0l291 1366h197l-289 -1366h-199zM174 1493l246 266h182l133 -266h-157l-82 176l-158 -176h-164z" />
<glyph unicode="&#xcf;" horiz-adv-x="512" d="M47 0l291 1366h197l-289 -1366h-199zM240 1520l43 198h176l-43 -198h-176zM524 1520l43 198h176l-43 -198h-176z" />
<glyph unicode="&#xd0;" horiz-adv-x="1378" d="M51 621l35 163h137l123 582h215q201 0 327 -25.5t224 -89.5q223 -141 223 -473q0 -201 -80.5 -371.5t-220.5 -265.5q-117 -80 -275.5 -110.5t-447.5 -30.5h-256l133 621h-137zM289 168h125q307 0 460 92q119 72 187.5 209t68.5 301q0 223 -129 325.5t-413 102.5h-80 l-88 -414h356l-35 -163h-356z" />
<glyph unicode="&#xd1;" horiz-adv-x="1394" d="M55 0l291 1366h256l248 -727q133 -395 139 -524q12 184 72 460l168 791h184l-291 -1366h-256l-262 772q-102 299 -123 463q-6 -119 -39 -277l-202 -958h-185zM627 1526q66 211 215 211q66 0 184 -64q49 -27 76 -26q70 0 98 86l94 -2q-2 -4 -4 -10.5t-4 -8.5 q-25 -80 -59 -123q-59 -72 -140 -71q-39 0 -67.5 9t-112.5 52q-70 35 -96 35q-53 0 -90 -88h-94z" />
<glyph unicode="&#xd2;" horiz-adv-x="1480" d="M123 565q0 164 65.5 331t176.5 280q199 209 518 208q258 0 401 -148.5t143 -416.5q0 -166 -60 -328.5t-167 -287.5q-190 -221 -520 -221q-268 0 -412.5 151t-144.5 432zM328 553q0 -190 98 -295.5t276 -105.5q236 0 373 200q147 213 148 477q0 172 -96.5 278.5 t-252.5 106.5q-238 0 -397 -215q-68 -90 -108.5 -212.5t-40.5 -233.5zM643 1759h221l166 -266h-133z" />
<glyph unicode="&#xd3;" horiz-adv-x="1480" d="M123 565q0 164 65.5 331t176.5 280q199 209 518 208q258 0 401 -148.5t143 -416.5q0 -166 -60 -328.5t-167 -287.5q-190 -221 -520 -221q-268 0 -412.5 151t-144.5 432zM328 553q0 -190 98 -295.5t276 -105.5q236 0 373 200q147 213 148 477q0 172 -96.5 278.5 t-252.5 106.5q-238 0 -397 -215q-68 -90 -108.5 -212.5t-40.5 -233.5zM846 1493l213 266h233l-305 -266h-141z" />
<glyph unicode="&#xd4;" horiz-adv-x="1480" d="M123 565q0 164 65.5 331t176.5 280q199 209 518 208q258 0 401 -148.5t143 -416.5q0 -166 -60 -328.5t-167 -287.5q-190 -221 -520 -221q-268 0 -412.5 151t-144.5 432zM328 553q0 -190 98 -295.5t276 -105.5q236 0 373 200q147 213 148 477q0 172 -96.5 278.5 t-252.5 106.5q-238 0 -397 -215q-68 -90 -108.5 -212.5t-40.5 -233.5zM625 1493l280 266h182l166 -266h-163l-111 170l-182 -170h-172z" />
<glyph unicode="&#xd5;" horiz-adv-x="1480" d="M123 565q0 164 65.5 331t176.5 280q199 209 518 208q258 0 401 -148.5t143 -416.5q0 -166 -60 -328.5t-167 -287.5q-190 -221 -520 -221q-268 0 -412.5 151t-144.5 432zM328 553q0 -190 98 -295.5t276 -105.5q236 0 373 200q147 213 148 477q0 172 -96.5 278.5 t-252.5 106.5q-238 0 -397 -215q-68 -90 -108.5 -212.5t-40.5 -233.5zM653 1526q66 211 215 211q66 0 185 -64q49 -27 75 -26q70 0 99 86l94 -2q-2 -4 -4 -10.5t-4 -8.5q-25 -80 -60 -123q-59 -72 -139 -71q-37 0 -66.5 9t-113.5 52q-70 35 -96 35q-53 0 -90 -88h-95z" />
<glyph unicode="&#xd6;" horiz-adv-x="1480" d="M123 565q0 164 65.5 331t176.5 280q199 209 518 208q258 0 401 -148.5t143 -416.5q0 -166 -60 -328.5t-167 -287.5q-190 -221 -520 -221q-268 0 -412.5 151t-144.5 432zM328 553q0 -190 98 -295.5t276 -105.5q236 0 373 200q147 213 148 477q0 172 -96.5 278.5 t-252.5 106.5q-238 0 -397 -215q-68 -90 -108.5 -212.5t-40.5 -233.5zM659 1520l43 198h187l-43 -198h-187zM1059 1520l43 198h186l-45 -198h-184z" />
<glyph unicode="&#xd7;" d="M207 397l299 299l-299 299l106 107l299 -299l299 299l107 -107l-299 -299l299 -299l-107 -106l-299 299l-299 -299z" />
<glyph unicode="&#xd8;" horiz-adv-x="1480" d="M88 49l133 141q-98 150 -98 367q0 170 65.5 337t176.5 282q205 209 514 208q225 0 364 -108l123 129l96 -88l-131 -139q96 -150 96 -363q0 -164 -60 -325.5t-167 -286.5q-190 -221 -516 -221q-233 0 -373 110l-127 -133zM328 539q0 -96 41 -197l729 791q-86 82 -226 81 q-221 0 -382.5 -200.5t-161.5 -474.5zM449 236q117 -84 251 -84q238 0 375 200q68 100 108 229.5t40 249.5q0 109 -43 195z" />
<glyph unicode="&#xd9;" horiz-adv-x="1374" d="M147 385q0 117 31 258l154 723h198l-159 -743q-27 -117 -27 -197q0 -123 80 -198.5t209 -75.5q86 0 162.5 36.5t124.5 100.5q80 104 131 344l157 733h197l-164 -770q-41 -195 -93 -304.5t-134 -178.5q-150 -131 -389 -131q-213 0 -345.5 111.5t-132.5 291.5zM596 1759 h221l166 -266h-133z" />
<glyph unicode="&#xda;" horiz-adv-x="1374" d="M147 385q0 117 31 258l154 723h198l-159 -743q-27 -117 -27 -197q0 -123 80 -198.5t209 -75.5q86 0 162.5 36.5t124.5 100.5q80 104 131 344l157 733h197l-164 -770q-41 -195 -93 -304.5t-134 -178.5q-150 -131 -389 -131q-213 0 -345.5 111.5t-132.5 291.5zM813 1493 l213 266h234l-306 -266h-141z" />
<glyph unicode="&#xdb;" horiz-adv-x="1374" d="M147 385q0 117 31 258l154 723h198l-159 -743q-27 -117 -27 -197q0 -123 80 -198.5t209 -75.5q86 0 162.5 36.5t124.5 100.5q80 104 131 344l157 733h197l-164 -770q-41 -195 -93 -304.5t-134 -178.5q-150 -131 -389 -131q-213 0 -345.5 111.5t-132.5 291.5zM594 1493 l280 266h183l166 -266h-164l-111 170l-182 -170h-172z" />
<glyph unicode="&#xdc;" horiz-adv-x="1374" d="M147 385q0 117 31 258l154 723h198l-159 -743q-27 -117 -27 -197q0 -123 80 -198.5t209 -75.5q86 0 162.5 36.5t124.5 100.5q80 104 131 344l157 733h197l-164 -770q-41 -195 -93 -304.5t-134 -178.5q-150 -131 -389 -131q-213 0 -345.5 111.5t-132.5 291.5zM623 1520 l43 198h186l-43 -198h-186zM1022 1520l43 198h186l-45 -198h-184z" />
<glyph unicode="&#xdd;" horiz-adv-x="1273" d="M180 1366h217l271 -612l538 612h248l-711 -793l-120 -573h-199l123 573zM723 1493l213 266h233l-305 -266h-141z" />
<glyph unicode="&#xde;" horiz-adv-x="1103" d="M55 0l291 1366h199l-45 -205h65q246 0 371 -76q147 -90 147 -282q0 -100 -46 -194.5t-124 -153.5q-147 -113 -442 -113h-145l-72 -342h-199zM362 510h111q211 0 301 68q104 78 105 213q0 203 -312 202h-102z" />
<glyph unicode="&#xdf;" horiz-adv-x="1167" d="M31 0l223 1049q47 229 147 329q115 117 334 117q213 0 309 -102q90 -90 91 -248q0 -172 -125 -281q-74 -68 -209 -88q100 -33 155 -74q109 -80 109 -229q0 -193 -119 -332q-133 -158 -399 -157q-88 0 -189 16l35 154q78 -27 152 -27q145 0 232 91t87 243q0 125 -71.5 182 t-225.5 59l33 150q10 -2 23 -2q129 0 221 86t92 205q0 96 -58.5 153.5t-156.5 57.5q-121 0 -188.5 -84t-110.5 -289l-207 -979h-184z" />
<glyph unicode="&#xe0;" horiz-adv-x="1036" d="M25 268q0 88 44 162t117 111q150 76 416 75q78 0 150 -10q6 61 6 80q0 88 -59.5 138t-161.5 50q-150 0 -312 -77l37 170q162 51 285 51q178 0 282.5 -83t104.5 -226q0 -57 -8 -110.5t-62 -315.5q-6 -20 -49 -283h-168q12 115 29 174q-121 -190 -336 -190 q-141 0 -228 78.5t-87 205.5zM219 279q0 -68 48 -110t124 -42q129 0 219 102q66 80 105 248q-66 4 -88 4q-195 0 -301.5 -53t-106.5 -149zM356 1442h193l162 -281h-123z" />
<glyph unicode="&#xe1;" horiz-adv-x="1036" d="M25 268q0 88 44 162t117 111q150 76 416 75q78 0 150 -10q6 61 6 80q0 88 -59.5 138t-161.5 50q-150 0 -312 -77l37 170q162 51 285 51q178 0 282.5 -83t104.5 -226q0 -57 -8 -110.5t-62 -315.5q-6 -20 -49 -283h-168q12 115 29 174q-121 -190 -336 -190 q-141 0 -228 78.5t-87 205.5zM219 279q0 -68 48 -110t124 -42q129 0 219 102q66 80 105 248q-66 4 -88 4q-195 0 -301.5 -53t-106.5 -149zM563 1161l225 281h205l-299 -281h-131z" />
<glyph unicode="&#xe2;" horiz-adv-x="1036" d="M25 268q0 88 44 162t117 111q150 76 416 75q78 0 150 -10q6 61 6 80q0 88 -59.5 138t-161.5 50q-150 0 -312 -77l37 170q162 51 285 51q178 0 282.5 -83t104.5 -226q0 -57 -8 -110.5t-62 -315.5q-6 -20 -49 -283h-168q12 115 29 174q-121 -190 -336 -190 q-141 0 -228 78.5t-87 205.5zM219 279q0 -68 48 -110t124 -42q129 0 219 102q66 80 105 248q-66 4 -88 4q-195 0 -301.5 -53t-106.5 -149zM338 1161l270 281h176l152 -281h-158l-98 189l-186 -189h-156z" />
<glyph unicode="&#xe3;" horiz-adv-x="1036" d="M25 268q0 88 44 162t117 111q150 76 416 75q78 0 150 -10q6 61 6 80q0 88 -59.5 138t-161.5 50q-150 0 -312 -77l37 170q162 51 285 51q178 0 282.5 -83t104.5 -226q0 -57 -8 -110.5t-62 -315.5q-6 -20 -49 -283h-168q12 115 29 174q-121 -190 -336 -190 q-141 0 -228 78.5t-87 205.5zM219 279q0 -68 48 -110t124 -42q129 0 219 102q66 80 105 248q-66 4 -88 4q-195 0 -301.5 -53t-106.5 -149zM354 1198q57 201 209 201q47 0 172 -60q47 -23 70 -22q59 0 84 76h98q-29 -96 -80 -149.5t-119 -53.5q-47 0 -210 78q-20 10 -41 10 q-57 0 -86 -80h-97z" />
<glyph unicode="&#xe4;" horiz-adv-x="1036" d="M25 268q0 88 44 162t117 111q150 76 416 75q78 0 150 -10q6 61 6 80q0 88 -59.5 138t-161.5 50q-150 0 -312 -77l37 170q162 51 285 51q178 0 282.5 -83t104.5 -226q0 -57 -8 -110.5t-62 -315.5q-6 -20 -49 -283h-168q12 115 29 174q-121 -190 -336 -190 q-141 0 -228 78.5t-87 205.5zM219 279q0 -68 48 -110t124 -42q129 0 219 102q66 80 105 248q-66 4 -88 4q-195 0 -301.5 -53t-106.5 -149zM379 1194l43 199h178l-43 -199h-178zM750 1194l41 199h180l-43 -199h-178z" />
<glyph unicode="&#xe5;" horiz-adv-x="1036" d="M25 268q0 88 44 162t117 111q150 76 416 75q78 0 150 -10q6 61 6 80q0 88 -59.5 138t-161.5 50q-150 0 -312 -77l37 170q162 51 285 51q178 0 282.5 -83t104.5 -226q0 -57 -8 -110.5t-62 -315.5q-6 -20 -49 -283h-168q12 115 29 174q-121 -190 -336 -190 q-141 0 -228 78.5t-87 205.5zM219 279q0 -68 48 -110t124 -42q129 0 219 102q66 80 105 248q-66 4 -88 4q-195 0 -301.5 -53t-106.5 -149zM465 1311q0 82 59.5 139t143.5 57q78 0 136 -58t58 -140t-58.5 -140.5t-140 -58.5t-140 58.5t-58.5 142.5zM565 1309q0 -41 29 -70 t70 -29t69.5 30t28.5 69t-28.5 68.5t-67.5 29.5q-41 0 -71 -28.5t-30 -69.5z" />
<glyph unicode="&#xe6;" horiz-adv-x="1710" d="M25 281q0 84 43 154.5t116 109.5q145 76 430 76q84 0 168 -9q10 43 11 76q0 88 -65.5 137t-180.5 49q-152 0 -324 -73l35 170q154 47 303 47q139 0 230 -39q47 -20 73.5 -48t48.5 -83q57 92 134 131t202 39q195 0 299.5 -101.5t104.5 -289.5q0 -74 -23 -170h-702 q-4 -49 -4 -66q0 -127 80.5 -195.5t230.5 -68.5q125 0 278 63l-28 -170q-154 -37 -295 -36q-330 0 -389 215q-53 -113 -147.5 -164t-247.5 -51q-180 0 -280.5 79t-100.5 218zM221 279q0 -70 52.5 -111t136.5 -41q160 0 252 127q49 68 88 219q-66 4 -103 4q-188 0 -278 -28 q-148 -47 -148 -170zM952 600h516q4 53 5 72q0 96 -57.5 149t-158.5 53q-137 0 -221 -100q-53 -57 -84 -174z" />
<glyph unicode="&#xe7;" horiz-adv-x="905" d="M80 420q0 266 157.5 432t407.5 166q123 0 252 -45l-43 -142q-111 43 -197 43q-166 0 -273.5 -126.5t-107.5 -323.5q0 -143 72 -220t205 -77q88 0 211 45l-37 -160q-121 -29 -209 -28h-22l-66 -93q55 8 76 9q66 0 104.5 -36t38.5 -93q0 -74 -71.5 -126.5t-171.5 -52.5 q-98 0 -187 41l41 68q61 -27 129 -27q51 0 83 22.5t32 59.5q0 29 -25.5 48.5t-60.5 19.5q-18 0 -74 -14l-29 34l103 148q-162 27 -250 137.5t-88 290.5z" />
<glyph unicode="&#xe8;" horiz-adv-x="1050" d="M76 410q0 125 44 248.5t120 207.5q135 152 368 152q182 0 283.5 -99.5t101.5 -275.5q0 -72 -22 -186h-705q-8 -66 -8 -90q0 -115 80 -177.5t227 -62.5q123 0 291 59l-35 -159q-154 -43 -280 -43q-227 0 -346 109.5t-119 316.5zM293 600h514q6 43 6 78q0 90 -55.5 143 t-151.5 53q-141 0 -231 -106q-51 -59 -82 -168zM391 1442h193l161 -281h-122z" />
<glyph unicode="&#xe9;" horiz-adv-x="1050" d="M76 410q0 125 44 248.5t120 207.5q135 152 368 152q182 0 283.5 -99.5t101.5 -275.5q0 -72 -22 -186h-705q-8 -66 -8 -90q0 -115 80 -177.5t227 -62.5q123 0 291 59l-35 -159q-154 -43 -280 -43q-227 0 -346 109.5t-119 316.5zM293 600h514q6 43 6 78q0 90 -55.5 143 t-151.5 53q-141 0 -231 -106q-51 -59 -82 -168zM580 1161l225 281h205l-299 -281h-131z" />
<glyph unicode="&#xea;" horiz-adv-x="1050" d="M76 410q0 125 44 248.5t120 207.5q135 152 368 152q182 0 283.5 -99.5t101.5 -275.5q0 -72 -22 -186h-705q-8 -66 -8 -90q0 -115 80 -177.5t227 -62.5q123 0 291 59l-35 -159q-154 -43 -280 -43q-227 0 -346 109.5t-119 316.5zM293 600h514q6 43 6 78q0 90 -55.5 143 t-151.5 53q-141 0 -231 -106q-51 -59 -82 -168zM369 1161l270 281h176l152 -281h-158l-98 189l-187 -189h-155z" />
<glyph unicode="&#xeb;" horiz-adv-x="1050" d="M76 410q0 125 44 248.5t120 207.5q135 152 368 152q182 0 283.5 -99.5t101.5 -275.5q0 -72 -22 -186h-705q-8 -66 -8 -90q0 -115 80 -177.5t227 -62.5q123 0 291 59l-35 -159q-154 -43 -280 -43q-227 0 -346 109.5t-119 316.5zM293 600h514q6 43 6 78q0 90 -55.5 143 t-151.5 53q-141 0 -231 -106q-51 -59 -82 -168zM410 1194l43 199h178l-43 -199h-178zM780 1194l41 199h180l-43 -199h-178z" />
<glyph unicode="&#xec;" horiz-adv-x="464" d="M31 0l213 1001h184l-213 -1001h-184zM102 1442h185l157 -281h-122z" />
<glyph unicode="&#xed;" horiz-adv-x="464" d="M31 0l213 1001h184l-213 -1001h-184zM297 1161l213 281h197l-279 -281h-131z" />
<glyph unicode="&#xee;" horiz-adv-x="464" d="M31 0l213 1001h184l-213 -1001h-184zM104 1161l236 281h176l117 -281h-150l-71 199l-158 -199h-150z" />
<glyph unicode="&#xef;" horiz-adv-x="464" d="M31 0l213 1001h184l-213 -1001h-184zM150 1194l43 199h167l-43 -199h-167zM420 1194l43 199h168l-41 -199h-170z" />
<glyph unicode="&#xf0;" horiz-adv-x="1165" d="M80 432q0 254 158.5 422t398.5 168q88 0 141 -24.5t117 -94.5q-2 90 -37 182.5t-88 141.5l-195 -119l-63 90l168 105q-80 41 -203 67l51 113q74 -8 156 -36t131 -61l201 123l67 -90l-182 -112q90 -98 141.5 -265.5t51.5 -361.5q0 -334 -148.5 -514t-421.5 -180 q-207 0 -325.5 119.5t-118.5 326.5zM279 426q0 -139 66.5 -218t184.5 -79q150 0 252 133q109 147 109 322q0 133 -68.5 214t-183.5 81q-152 0 -256 -130t-104 -323z" />
<glyph unicode="&#xf1;" horiz-adv-x="1169" d="M43 0l152 713q16 78 49 288h178l-14 -67l-13 -70l-14 -51q68 109 152.5 157t203.5 48q147 0 236.5 -84t89.5 -223q0 -106 -33 -258l-96 -453h-184l98 465q31 150 31 231q0 78 -51.5 125t-135.5 47q-143 0 -239 -116q-88 -106 -136 -328l-90 -424h-184zM424 1198 q57 201 209 201q47 0 172 -60q47 -23 69 -22q59 0 84 76h99q-29 -96 -80 -149.5t-119 -53.5q-47 0 -211 78q-20 10 -41 10q-57 0 -86 -80h-96z" />
<glyph unicode="&#xf2;" horiz-adv-x="1165" d="M80 438q0 117 47 235t125 195q150 150 393 150q207 0 324.5 -119t117.5 -328q0 -135 -53 -260t-143 -200q-147 -127 -365 -127q-207 0 -326.5 121.5t-119.5 332.5zM279 428q0 -139 67.5 -220t183.5 -81q145 0 251 134t106 319q0 137 -67.5 215.5t-182.5 78.5 q-150 0 -254 -131t-104 -315zM428 1442h193l161 -281h-123z" />
<glyph unicode="&#xf3;" horiz-adv-x="1165" d="M80 438q0 117 47 235t125 195q150 150 393 150q207 0 324.5 -119t117.5 -328q0 -135 -53 -260t-143 -200q-147 -127 -365 -127q-207 0 -326.5 121.5t-119.5 332.5zM279 428q0 -139 67.5 -220t183.5 -81q145 0 251 134t106 319q0 137 -67.5 215.5t-182.5 78.5 q-150 0 -254 -131t-104 -315zM629 1161l225 281h205l-299 -281h-131z" />
<glyph unicode="&#xf4;" horiz-adv-x="1165" d="M80 438q0 117 47 235t125 195q150 150 393 150q207 0 324.5 -119t117.5 -328q0 -135 -53 -260t-143 -200q-147 -127 -365 -127q-207 0 -326.5 121.5t-119.5 332.5zM279 428q0 -139 67.5 -220t183.5 -81q145 0 251 134t106 319q0 137 -67.5 215.5t-182.5 78.5 q-150 0 -254 -131t-104 -315zM416 1161l270 281h176l152 -281h-158l-98 189l-187 -189h-155z" />
<glyph unicode="&#xf5;" horiz-adv-x="1165" d="M80 438q0 117 47 235t125 195q150 150 393 150q207 0 324.5 -119t117.5 -328q0 -135 -53 -260t-143 -200q-147 -127 -365 -127q-207 0 -326.5 121.5t-119.5 332.5zM279 428q0 -139 67.5 -220t183.5 -81q145 0 251 134t106 319q0 137 -67.5 215.5t-182.5 78.5 q-150 0 -254 -131t-104 -315zM432 1198q57 201 209 201q47 0 172 -60q47 -23 70 -22q59 0 84 76h98q-29 -96 -80 -149.5t-119 -53.5q-47 0 -211 78q-20 10 -41 10q-57 0 -86 -80h-96z" />
<glyph unicode="&#xf6;" horiz-adv-x="1165" d="M80 438q0 117 47 235t125 195q150 150 393 150q207 0 324.5 -119t117.5 -328q0 -135 -53 -260t-143 -200q-147 -127 -365 -127q-207 0 -326.5 121.5t-119.5 332.5zM279 428q0 -139 67.5 -220t183.5 -81q145 0 251 134t106 319q0 137 -67.5 215.5t-182.5 78.5 q-150 0 -254 -131t-104 -315zM459 1194l43 199h178l-43 -199h-178zM829 1194l41 199h181l-43 -199h-179z" />
<glyph unicode="&#xf7;" d="M141 623v149h942v-149h-942zM514 291v194h195v-194h-195zM514 909v195h195v-195h-195z" />
<glyph unicode="&#xf8;" horiz-adv-x="1165" d="M47 33l115 117q-82 125 -82 280q0 123 47 242t125 196q154 150 389 150q176 0 283 -78l108 113l88 -76l-114 -119q82 -119 81 -291q0 -131 -53 -256t-143 -200q-147 -127 -365 -127q-164 0 -284 84l-107 -111zM279 418q0 -72 24 -135l494 534q-53 57 -164 57 q-147 0 -250.5 -133t-103.5 -323zM367 186q66 -59 161 -59q147 0 253 134t106 321q0 70 -23 141z" />
<glyph unicode="&#xf9;" horiz-adv-x="1150" d="M90 264q0 74 23 180l118 557h185l-125 -587q-12 -53 -12 -103q0 -80 51 -129t135 -49q117 0 211 98q100 109 151 347l91 423h184l-144 -679q-37 -172 -57 -322h-164l8 74q6 45 21 112q-59 -88 -111 -127q-102 -76 -241 -75q-143 0 -233.5 77.5t-90.5 202.5zM432 1442h193 l161 -281h-122z" />
<glyph unicode="&#xfa;" horiz-adv-x="1150" d="M90 264q0 74 23 180l118 557h185l-125 -587q-12 -53 -12 -103q0 -80 51 -129t135 -49q117 0 211 98q100 109 151 347l91 423h184l-144 -679q-37 -172 -57 -322h-164l8 74q6 45 21 112q-59 -88 -111 -127q-102 -76 -241 -75q-143 0 -233.5 77.5t-90.5 202.5zM612 1161 l226 281h204l-299 -281h-131z" />
<glyph unicode="&#xfb;" horiz-adv-x="1150" d="M90 264q0 74 23 180l118 557h185l-125 -587q-12 -53 -12 -103q0 -80 51 -129t135 -49q117 0 211 98q100 109 151 347l91 423h184l-144 -679q-37 -172 -57 -322h-164l8 74q6 45 21 112q-59 -88 -111 -127q-102 -76 -241 -75q-143 0 -233.5 77.5t-90.5 202.5zM408 1161 l270 281h176l152 -281h-158l-98 189l-187 -189h-155z" />
<glyph unicode="&#xfc;" horiz-adv-x="1150" d="M90 264q0 74 23 180l118 557h185l-125 -587q-12 -53 -12 -103q0 -80 51 -129t135 -49q117 0 211 98q100 109 151 347l91 423h184l-144 -679q-37 -172 -57 -322h-164l8 74q6 45 21 112q-59 -88 -111 -127q-102 -76 -241 -75q-143 0 -233.5 77.5t-90.5 202.5zM446 1194 l43 199h179l-43 -199h-179zM817 1194l41 199h180l-43 -199h-178z" />
<glyph unicode="&#xfd;" horiz-adv-x="956" d="M-117 -408l33 154q43 -14 88 -14q74 0 121 34.5t100 124.5l41 72l-164 1038h191l92 -657q16 -109 16 -154v-30q23 63 74 159l371 682h198l-651 -1153q-90 -158 -170 -216t-211 -58q-61 0 -129 18zM502 1161l225 281h205l-299 -281h-131z" />
<glyph unicode="&#xfe;" horiz-adv-x="1177" d="M-47 -416l401 1891h185l-93 -441q-20 -98 -61 -188q72 90 150.5 131t189.5 41q174 0 274.5 -107.5t100.5 -294.5q0 -127 -42 -252.5t-116 -218.5q-131 -162 -362 -161q-170 0 -258 88q-39 39 -66 112q-6 -68 -20 -135l-99 -465h-184zM319 410q0 -133 63.5 -208t178.5 -75 q152 0 242 143q98 160 98 348q0 121 -57.5 188.5t-159.5 67.5q-150 0 -257.5 -138t-107.5 -326z" />
<glyph unicode="&#xff;" horiz-adv-x="956" d="M-117 -408l33 154q43 -14 88 -14q74 0 121 34.5t100 124.5l41 72l-164 1038h191l92 -657q16 -109 16 -154v-30q23 63 74 159l371 682h198l-651 -1153q-90 -158 -170 -216t-211 -58q-61 0 -129 18zM340 1194l43 199h178l-43 -199h-178zM711 1194l41 199h180l-43 -199h-178 z" />
<glyph unicode="&#x152;" horiz-adv-x="1851" d="M139 606q0 330 207 549q213 227 615 227q55 0 196 -10q68 -6 115 -6h618l-35 -168h-520l-86 -410h494l-37 -167h-494l-94 -453h551l-37 -168h-569q-27 0 -207 -12q-53 -4 -86 -4q-295 0 -463 165.5t-168 456.5zM344 592q0 -193 125 -315.5t322 -122.5q55 0 129 14 l217 1022q-86 14 -160 14q-319 0 -488 -200q-145 -172 -145 -412z" />
<glyph unicode="&#x153;" horiz-adv-x="1835" d="M80 436q0 254 168 426q154 156 401 156q193 0 285 -88q41 -37 72 -121q66 115 147.5 162t218.5 47q193 0 298.5 -100.5t105.5 -284.5q0 -74 -23 -178h-694q-4 -49 -4 -68q0 -119 88 -189.5t235 -70.5q111 0 262 61l-28 -157q-152 -47 -279 -47q-178 0 -291 69 q-78 47 -106 158q-43 -109 -123 -158q-113 -70 -276 -69q-207 0 -332 123.5t-125 328.5zM279 430q0 -156 75 -229q78 -74 187 -74q141 0 247.5 136t106.5 319q0 135 -67.5 213.5t-182.5 78.5q-152 0 -259 -130t-107 -314zM1087 598h506q4 53 4 72q0 94 -45 141 q-57 63 -159 63q-129 0 -219 -102q-54 -61 -87 -174z" />
<glyph unicode="&#x178;" horiz-adv-x="1273" d="M180 1366h217l271 -612l538 612h248l-711 -793l-120 -573h-199l123 573zM545 1520l43 198h186l-43 -198h-186zM944 1520l43 198h187l-46 -198h-184z" />
<glyph unicode="&#x2c6;" horiz-adv-x="1024" d="M348 1161l270 281h177l151 -281h-158l-98 189l-186 -189h-156z" />
<glyph unicode="&#x2dc;" horiz-adv-x="1024" d="M365 1198q57 201 208 201q47 0 172 -60q47 -23 70 -22q59 0 84 76h98q-29 -96 -80 -149.5t-118 -53.5q-47 0 -211 78q-20 10 -41 10q-59 0 -86 -80h-96z" />
<glyph unicode="&#x2000;" horiz-adv-x="921" />
<glyph unicode="&#x2001;" horiz-adv-x="1845" />
<glyph unicode="&#x2002;" horiz-adv-x="921" />
<glyph unicode="&#x2003;" horiz-adv-x="1845" />
<glyph unicode="&#x2004;" horiz-adv-x="614" />
<glyph unicode="&#x2005;" horiz-adv-x="460" />
<glyph unicode="&#x2006;" horiz-adv-x="307" />
<glyph unicode="&#x2007;" horiz-adv-x="307" />
<glyph unicode="&#x2008;" horiz-adv-x="229" />
<glyph unicode="&#x2009;" horiz-adv-x="368" />
<glyph unicode="&#x200a;" horiz-adv-x="102" />
<glyph unicode="&#x2010;" horiz-adv-x="514" d="M-14 449l32 153h514l-32 -153h-514z" />
<glyph unicode="&#x2011;" horiz-adv-x="514" d="M-14 449l32 153h514l-32 -153h-514z" />
<glyph unicode="&#x2012;" horiz-adv-x="514" d="M-14 449l32 153h514l-32 -153h-514z" />
<glyph unicode="&#x2013;" d="M41 455l31 141h1036l-29 -141h-1038z" />
<glyph unicode="&#x2014;" horiz-adv-x="1429" d="M-12 455l30 141h1430l-31 -141h-1429z" />
<glyph unicode="&#x2018;" horiz-adv-x="618" d="M211 993l274 482h189l-228 -482h-235z" />
<glyph unicode="&#x2019;" horiz-adv-x="618" d="M211 993l227 482h236l-277 -482h-186z" />
<glyph unicode="&#x201a;" horiz-adv-x="618" d="M-55 -260l227 481h236l-277 -481h-186z" />
<glyph unicode="&#x201c;" horiz-adv-x="1001" d="M211 991l274 484h189l-228 -484h-235zM594 991l276 484h187l-228 -484h-235z" />
<glyph unicode="&#x201d;" horiz-adv-x="1001" d="M211 991l227 484h236l-277 -484h-186zM594 991l227 484h236l-277 -484h-186z" />
<glyph unicode="&#x201e;" horiz-adv-x="1001" d="M-55 -262l227 481h236l-277 -481h-186zM328 -262l227 481h236l-277 -481h-186z" />
<glyph unicode="&#x2022;" horiz-adv-x="1366" d="M401 692q0 119 83 202t204 83q115 0 198 -84t83 -201t-83 -199.5t-200 -82.5q-119 0 -202 82.5t-83 199.5z" />
<glyph unicode="&#x2026;" horiz-adv-x="1527" d="M35 0l47 219h221l-45 -219h-223zM545 0l45 219h223l-47 -219h-221zM1053 0l47 219h223l-47 -219h-223z" />
<glyph unicode="&#x202f;" horiz-adv-x="368" />
<glyph unicode="&#x2039;" horiz-adv-x="632" d="M90 555l344 348h184l-329 -391l160 -412h-168z" />
<glyph unicode="&#x203a;" horiz-adv-x="632" d="M8 100l330 392l-160 411h170l189 -454l-344 -349h-185z" />
<glyph unicode="&#x205f;" horiz-adv-x="460" />
<glyph unicode="&#x20ac;" horiz-adv-x="1470" d="M115 547l57 108h133q4 33 10 68h-163l57 108h133q82 260 270.5 406.5t444.5 146.5q231 0 370 -116l-102 -189q-100 135 -274 135q-156 0 -285 -100t-205 -283h633l-57 -108h-611l-12 -68h586l-58 -108h-538q0 -184 100.5 -289.5t274.5 -105.5q156 0 280 98l-49 -230 q-111 -39 -250 -38q-266 0 -410.5 145t-150.5 420h-184z" />
<glyph unicode="&#x2122;" horiz-adv-x="1726" d="M158 1257l22 111h645l-22 -111h-254l-143 -669h-136l144 669h-256zM750 588l165 780h211l88 -481q14 -70 19 -146q29 57 59 109l322 518h205l-166 -780h-127l108 510q14 76 35 149q-61 -111 -78 -137l-327 -522h-123l-72 362q-33 158 -53 307l-21 -110q0 -6 -16 -78 l-12 -57l-90 -424h-127z" />
<glyph unicode="&#xe000;" horiz-adv-x="1000" d="M0 1000h1000v-1000h-1000v1000z" />
<glyph unicode="&#xfb01;" horiz-adv-x="1177" d="M53 858l31 143h240l26 119q25 111 57.5 173.5t90.5 109.5q104 82 241 82q57 0 140 -23l-31 -151q-55 16 -90 16q-123 0 -185 -108q-29 -55 -63 -218h272l-30 -143h-275l-182 -858h-184l182 858h-240zM743 0l213 1001h185l-213 -1001h-185zM979 1161l43 205h207l-43 -205 h-207z" />
<glyph unicode="&#xfb02;" horiz-adv-x="1177" d="M53 858l31 143h240l26 119q25 111 57.5 173.5t90.5 109.5q104 82 241 82q57 0 140 -23l-31 -151q-55 16 -90 16q-123 0 -185 -108q-29 -55 -63 -218h272l-30 -143h-275l-182 -858h-184l182 858h-240zM743 0l314 1475h184l-313 -1475h-185z" />
<glyph unicode="&#xfb03;" horiz-adv-x="1808" d="M53 858l31 143h240l26 119q25 111 57.5 173.5t90.5 109.5q104 82 241 82q57 0 140 -23l-31 -151q-55 16 -90 16q-123 0 -185 -108q-29 -55 -63 -218h446l25 119q23 109 56.5 172.5t92.5 110.5q100 82 242 82q55 0 139 -23l-32 -151q-51 16 -88 16q-123 0 -185 -108 q-31 -55 -63 -218h270l-31 -143h-272l-182 -858h-185l183 858h-449l-182 -858h-184l182 858h-240zM1374 0l213 1001h185l-213 -1001h-185zM1612 1161l43 205h207l-45 -205h-205z" />
<glyph unicode="&#xfb04;" horiz-adv-x="1808" d="M53 858l31 143h240l26 119q25 111 57.5 173.5t90.5 109.5q104 82 241 82q57 0 140 -23l-31 -151q-55 16 -90 16q-123 0 -185 -108q-29 -55 -63 -218h446l25 119q23 109 56.5 172.5t92.5 110.5q100 82 242 82q55 0 139 -23l-32 -151q-51 16 -88 16q-123 0 -185 -108 q-31 -55 -63 -218h270l-31 -143h-272l-182 -858h-185l183 858h-449l-182 -858h-184l182 858h-240zM1374 0l316 1475h184l-315 -1475h-185z" />
</font>
</defs>
</svg>
